<?xml version="1.0" standalone="no"?>
<!DOCTYPE svg PUBLIC "-//W3C//DTD SVG 1.1//EN" "http://www.w3.org/Graphics/SVG/1.1/DTD/svg11.dtd" >
<svg xmlns="http://www.w3.org/2000/svg" xmlns:xlink="http://www.w3.org/1999/xlink" version="1.1">
<metadata></metadata>
<defs>
<font id="pantonlight_caps" horiz-adv-x="1390" >
<font-face units-per-em="2048" ascent="1516" descent="-532" />
<missing-glyph horiz-adv-x="499" />
<glyph horiz-adv-x="0" />
<glyph horiz-adv-x="682" />
<glyph unicode=" "  horiz-adv-x="499" />
<glyph unicode="&#x09;" horiz-adv-x="499" />
<glyph unicode="&#xa0;" horiz-adv-x="499" />
<glyph unicode="!" horiz-adv-x="387" d="M133 45v12q0 32 12 44t43 12h11q32 0 44.5 -12t12.5 -44v-12q0 -31 -12.5 -43t-44.5 -12h-11q-31 0 -43 11.5t-12 43.5zM147 1491q0 25 23 25h47q25 0 25 -25l-13 -1159q0 -23 -24 -23h-23q-13 0 -17.5 5t-4.5 18z" />
<glyph unicode="&#x22;" horiz-adv-x="548" d="M139 1012v420q0 13 4.5 17.5t18.5 4.5h39q14 0 18.5 -4.5t3.5 -17.5l-16 -420q0 -12 -5 -16.5t-18 -4.5h-22q-13 0 -18 4.5t-5 16.5zM336 1012v420q0 14 4 18t18 4h41q13 0 18 -4.5t5 -17.5l-16 -420q-2 -12 -7 -16.5t-18 -4.5h-23q-13 0 -17.5 4.5t-4.5 16.5z" />
<glyph unicode="#" horiz-adv-x="1361" d="M76 436l10 37q5 14 11.5 18.5t21.5 4.5h233l115 383h-236q-13 0 -17 5t-1 17l12 37q5 23 33 23h234l102 339q3 14 9.5 19.5t21.5 5.5h41q24 0 16 -25l-102 -339h358l104 339q3 14 9.5 19.5t19.5 5.5h39q15 0 19 -5.5t1 -19.5l-102 -339h240q24 0 18 -25l-12 -37 q-5 -20 -31 -20h-239l-115 -383h239q27 0 19 -25l-12 -37q-5 -20 -31 -20h-238l-116 -389q-6 -15 -12.5 -20t-20.5 -5h-41q-25 0 -17 25l117 389h-360l-117 -389q-3 -25 -29 -25h-41q-13 0 -17 6t1 19l115 389h-236q-24 0 -16 22zM440 496h361l114 383h-360z" />
<glyph unicode="$" horiz-adv-x="1206" d="M90 365q-11 27 16 38l35 13q13 5 21.5 1.5t15.5 -18.5q32 -76 67 -128.5t84.5 -93.5t117 -61t155.5 -20q408 0 408 307q0 68 -24.5 117.5t-52 76t-94 46t-100.5 24.5t-122 15q-10 1 -15 2q-48 5 -78.5 9t-76 12t-75.5 17t-67.5 24t-62.5 33t-50.5 44.5t-40.5 58.5 t-24.5 74t-9.5 91q0 186 108.5 289t325.5 110v143q0 25 24 25h39q25 0 25 -25v-143q119 -8 205 -49.5t141 -107t107 -171.5q14 -25 -15 -37l-37 -14q-12 -7 -19.5 -5t-14.5 15q-50 99 -99.5 156.5t-130.5 91t-198 33.5q-365 0 -365 -311q0 -48 12.5 -86t30.5 -64t52 -46.5 t62.5 -31.5t78 -20.5t81 -13.5t88.5 -9q91 -10 142.5 -18t126.5 -33t115.5 -61t71 -102t30.5 -156q0 -186 -116.5 -286.5t-348.5 -109.5v-145q0 -25 -25 -25h-39q-24 0 -24 25v145q-181 10 -288 99.5t-173 255.5z" />
<glyph unicode="%" horiz-adv-x="1654" d="M78 1032v154q0 140 82 219.5t235 79.5t234.5 -79.5t81.5 -219.5v-154q0 -140 -81.5 -218.5t-234.5 -78.5t-235 78.5t-82 218.5zM156 1036q0 -108 61.5 -167.5t177.5 -59.5t178 59.5t62 167.5v146q0 108 -62 168.5t-178 60.5t-177.5 -60.5t-61.5 -168.5v-146zM257.5 8 q-3.5 8 4.5 19l1034 1405q10 15 18 18.5t29 3.5h39q13 0 17 -7.5t-4 -19.5l-1035 -1404q-12 -15 -20 -19t-31 -4h-33q-15 0 -18.5 8zM944 266v152q0 141 82 221t234 80q153 0 235 -80t82 -221v-152q0 -140 -82 -218.5t-235 -78.5q-152 0 -234 78.5t-82 218.5zM1020 270 q0 -108 62 -167.5t178 -59.5t177.5 59.5t61.5 167.5v146q0 108 -61.5 168.5t-177.5 60.5t-178 -60.5t-62 -168.5v-146z" />
<glyph unicode="&#x26;" horiz-adv-x="1337" d="M90 354q0 69 18.5 127.5t47.5 100t75 78.5t90 61.5t103 50.5q-95 91 -150 178.5t-55 192.5q0 138 99 239t257 101q152 0 254.5 -100t102.5 -236q0 -74 -21 -130.5t-67.5 -102.5t-108 -81.5t-155.5 -74.5l-21 -8l424 -408l150 141q16 16 32 0l29 -28q14 -14 0 -31 l-150 -143l263 -256q11 -11 7.5 -18t-20.5 -7h-55q-23 0 -39 16l-215 209q-170 -155 -277 -204.5t-233 -49.5q-161 0 -273 110t-112 273zM180 352q0 -125 87 -211t210 -86q107 0 201 47t246 183l-443 428q-73 -31 -123 -61t-93 -72.5t-64 -99t-21 -128.5zM305 1143 q0 -41 12 -80.5t27.5 -68.5t46.5 -66.5t51 -58.5t60 -60l39 20q47 20 72.5 31.5t63.5 31t58 35.5t45 40t37 49t20.5 58.5t8.5 72.5q0 103 -77 180.5t-194 77.5q-120 0 -195 -78t-75 -184z" />
<glyph unicode="'" horiz-adv-x="352" d="M139 1012v420q0 13 4.5 17.5t18.5 4.5h39q14 0 18.5 -4.5t3.5 -17.5l-16 -420q0 -12 -5 -16.5t-18 -4.5h-22q-13 0 -18 4.5t-5 16.5z" />
<glyph unicode="(" horiz-adv-x="493" d="M129 203v1048q0 180 70 285.5t215 171.5q19 10 30 -12l17 -33q10 -19 -12 -33q-120 -55 -177 -140.5t-57 -234.5v-1056q0 -149 57 -234.5t177 -140.5q22 -14 12 -33l-17 -33q-11 -22 -30 -12q-145 66 -215 171.5t-70 285.5z" />
<glyph unicode=")" horiz-adv-x="493" d="M31 -209q-7 20 14 33q120 55 177 140.5t57 234.5v1056q0 149 -57 234.5t-177 140.5q-21 13 -14 33l18 33q11 22 31 12q145 -66 215 -171.5t70 -285.5v-1048q0 -180 -70 -285.5t-215 -171.5q-20 -10 -31 12z" />
<glyph unicode="*" horiz-adv-x="792" d="M125 1171l10 31q8 16 25 8l217 -82l-12 234q-3 16 16 16h31q19 0 16 -16l-12 -234l219 82q19 5 24 -10l11 -29q3 -19 -13 -22l-229 -59l150 -185q12 -12 -5 -24l-24 -19q-17 -11 -25 6l-127 197l-131 -197q-8 -17 -22 -6l-27 21q-16 10 -2 24l150 183l-226 61 q-21 3 -14 20z" />
<glyph unicode="+" horiz-adv-x="1183" d="M109 653v33q0 14 5.5 19.5t20.5 5.5h416v415q0 15 5.5 21t18.5 6h33q25 0 25 -27v-415h418q24 0 24 -25v-33q0 -13 -5.5 -18.5t-18.5 -5.5h-418v-416q0 -27 -25 -27h-33q-13 0 -18.5 6t-5.5 21v416h-416q-15 0 -20.5 5t-5.5 19z" />
<glyph unicode="," horiz-adv-x="331" d="M43 -229l78 321q4 19 12 25t25 6h35q35 0 26 -31l-113 -317q-5 -13 -11 -18t-19 -5h-17q-19 0 -16 19z" />
<glyph unicode="-" horiz-adv-x="872" d="M131 526v35q0 25 27 25h559q24 0 24 -25v-35q0 -14 -5.5 -19t-18.5 -5h-559q-15 0 -21 5.5t-6 18.5z" />
<glyph unicode="." horiz-adv-x="337" d="M106 45v12q0 32 12.5 44t45.5 12h10q32 0 43.5 -12t11.5 -44v-12q0 -31 -11.5 -43t-43.5 -12h-10q-33 0 -45.5 11.5t-12.5 43.5z" />
<glyph unicode="/" horiz-adv-x="802" d="M72 -100l569 1532q4 13 11 17.5t22 4.5h43q22 0 16 -22l-569 -1532q-5 -14 -11.5 -18.5t-21.5 -4.5h-43q-23 0 -16 23z" />
<glyph unicode="0" horiz-adv-x="1273" d="M125 436v582q0 216 135 340.5t377 124.5t377 -124.5t135 -340.5v-582q0 -217 -134.5 -341t-377.5 -124t-377.5 124t-134.5 341zM219 436q0 -178 109 -277.5t309 -99.5t309 99.5t109 277.5v582q0 176 -109.5 276.5t-308.5 100.5t-308.5 -100.5t-109.5 -276.5v-582z" />
<glyph unicode="1" horiz-adv-x="911" d="M63 1104q-14 19 11 33l551 307q15 10 37 10h34q25 0 25 -27v-1400q0 -27 -25 -27h-43q-15 0 -20.5 6t-5.5 21v1312l-506 -280q-23 -15 -37 10z" />
<glyph unicode="2" horiz-adv-x="1198" d="M109 27v147q0 57 13.5 106t33 86t55.5 71.5t67.5 57t83.5 48t88 40.5t95 38q173 66 233 98q150 81 193 203q20 58 20 129q0 145 -99.5 244.5t-256.5 99.5q-164 0 -266.5 -68t-165.5 -209q-11 -22 -33 -14l-41 14q-24 10 -16 33q72 167 198 249.5t326 82.5 q100 0 185.5 -34t143.5 -92.5t91 -136.5t33 -165q0 -77 -16 -139t-55 -111.5t-76.5 -85t-108.5 -72t-120.5 -58t-142.5 -57.5q-52 -20 -79 -31t-72.5 -32t-70 -37.5t-56 -43.5t-47.5 -54t-27.5 -64.5t-11.5 -79.5v-102h850q15 0 20.5 -5.5t5.5 -19.5v-36q0 -15 -5.5 -21 t-20.5 -6h-922q-26 0 -26 27z" />
<glyph unicode="3" horiz-adv-x="1212" d="M104 336q-8 25 17 33l39 14q25 8 33 -16q48 -161 143 -234.5t289 -73.5q197 0 292 87t95 249q0 142 -78.5 224.5t-224.5 82.5h-342q-25 0 -25 25v35q0 15 5.5 20.5t19.5 5.5h331q135 0 205 82t70 203q0 157 -88 239.5t-260 82.5q-186 0 -279.5 -70t-140.5 -229 q-8 -23 -33 -15l-39 13q-24 8 -16 34q53 181 170.5 268t339.5 87q215 0 326.5 -105.5t111.5 -298.5q0 -113 -49 -201t-148 -126q119 -36 179.5 -129.5t60.5 -227.5q0 -200 -120 -312t-363 -112q-155 0 -261 44t-165 121.5t-95 199.5z" />
<glyph unicode="4" horiz-adv-x="1228" d="M53 451v26q0 20 8 33l760 948q16 19 37 19h43q15 0 21 -6t6 -23v-938h215q13 0 18.5 -6t5.5 -21v-32q0 -15 -5.5 -21t-18.5 -6h-215v-397q0 -15 -6 -21t-21 -6h-37q-15 0 -20.5 6t-5.5 21v397h-758q-15 0 -21 6t-6 21zM168 510h670v833z" />
<glyph unicode="5" horiz-adv-x="1187" d="M90 289q-8 25 14 33l43 14q24 12 33 -17q45 -130 150 -196t282 -66t282 105.5t105 263.5q0 152 -95.5 249t-272.5 97h-449q-20 0 -26.5 8t-3.5 27l61 602q1 26 12 35.5t37 9.5h758q13 0 18.5 -6t5.5 -21v-36q0 -25 -24 -25h-719l-49 -506h383q115 0 205 -34t145.5 -94 t84 -137.5t28.5 -168.5q0 -93 -33.5 -176t-94 -145.5t-153.5 -99t-205 -36.5q-210 0 -337.5 81t-184.5 239z" />
<glyph unicode="6" horiz-adv-x="1259" d="M123 479v496q0 249 131.5 378.5t384.5 129.5q196 0 317 -77.5t181 -231.5q4 -13 -0.5 -19.5t-18.5 -11.5l-39 -15q-14 -5 -20 -1.5t-12 18.5q-51 124 -150 187t-258 63q-207 0 -314.5 -106.5t-107.5 -313.5v-215q35 15 83.5 30t150.5 31.5t208 16.5q254 0 376 -107 t122 -328q0 -204 -137.5 -318t-380.5 -114q-251 0 -383.5 134.5t-132.5 373.5zM217 479q0 -200 108.5 -310t313.5 -110q202 0 313 89.5t111 254.5q0 176 -99.5 261.5t-310.5 85.5q-243 0 -436 -82v-189z" />
<glyph unicode="7" horiz-adv-x="1044" d="M57 1391v36q0 15 6 21t21 6h909q15 0 21 -6t6 -21v-24q0 -16 -8 -37l-590 -1343q-8 -15 -16 -19t-31 -4h-43q-26 0 -13 27l592 1339h-827q-27 0 -27 25z" />
<glyph unicode="8" horiz-adv-x="1249" d="M104 336q0 79 28 145t67 108t94.5 76.5t96 50.5t85.5 29q-58 20 -102.5 41t-89 53t-73.5 69.5t-47 90.5t-18 117q0 176 127 271.5t351 95.5q237 0 359 -92t122 -269q0 -74 -24 -135.5t-57.5 -100.5t-81.5 -70.5t-85 -47t-78 -27.5q66 -21 114 -40.5t98.5 -52t82 -71.5 t52 -96t20.5 -127q0 -180 -125 -281.5t-397 -101.5q-519 0 -519 365zM199 344q0 -140 101 -215.5t325 -75.5q422 0 422 301q0 48 -12 88t-29.5 68.5t-51 54t-63 42t-80 34t-86 28t-97.5 27.5q-32 9 -48 13q-22 -4 -40.5 -8.5t-60 -19t-74.5 -31t-73.5 -46t-68 -64.5t-46 -86 t-18.5 -110zM242 1114q0 -36 7.5 -68t18.5 -56.5t32 -47.5t39 -38.5t50.5 -32.5t54.5 -27t62.5 -23t64 -20t68.5 -19l31 -8q342 78 342 340q0 140 -99 213.5t-288 73.5q-183 0 -283 -74t-100 -213z" />
<glyph unicode="9" horiz-adv-x="1259" d="M102 1051q0 204 136.5 318t379.5 114q251 0 385 -135t134 -373v-496q0 -249 -132.5 -378.5t-386.5 -129.5q-378 0 -495 310q-4 14 -1 19.5t17 10.5l39 15q24 11 33 -17q51 -124 150 -187t257 -63q207 0 315.5 106.5t108.5 313.5v215q-191 -78 -442 -78q-254 0 -376 107 t-122 328zM197 1051q0 -176 98 -261t309 -85q236 0 438 81v189q0 200 -108.5 310t-315.5 110q-201 0 -311 -89.5t-110 -254.5z" />
<glyph unicode=":" horiz-adv-x="385" d="M131 45v12q0 32 12.5 44t44.5 12h11q31 0 43 -12t12 -44v-12q0 -31 -12 -43t-43 -12h-11q-33 0 -45 11.5t-12 43.5zM131 920v10q0 32 12.5 44.5t44.5 12.5h11q31 0 43 -12.5t12 -44.5v-10q0 -32 -12 -45t-43 -13h-11q-32 0 -44.5 12t-12.5 46z" />
<glyph unicode=";" horiz-adv-x="460" d="M117 -229l78 321q4 19 11.5 25t24.5 6h35q39 0 27 -31l-113 -317q-9 -23 -28 -23h-19q-19 0 -16 19zM190 920v10q0 32 13 44.5t45 12.5h10q31 0 43 -12.5t12 -44.5v-10q0 -32 -12 -45t-43 -13h-10q-33 0 -45.5 12.5t-12.5 45.5z" />
<glyph unicode="&#x3c;" horiz-adv-x="1032" d="M80 655v25q0 24 22 35l766 413q31 16 31 -18v-35q0 -20 -5 -27.5t-22 -17.5l-675 -358v-4l675 -361q11 -7 13 -8t7 -6.5t6 -11.5t1 -17v-39q0 -34 -31 -18l-766 414q-13 8 -17.5 14.5t-4.5 19.5z" />
<glyph unicode="=" horiz-adv-x="1232" d="M133 451v32q0 15 6 21t21 6h915q25 0 25 -27v-32q0 -27 -25 -27h-915q-15 0 -21 6t-6 21zM133 854v35q0 15 6 20.5t21 5.5h915q14 0 19.5 -5.5t5.5 -20.5v-35q0 -25 -25 -25h-915q-27 0 -27 25z" />
<glyph unicode="&#x3e;" horiz-adv-x="1032" d="M133 225v35q0 21 4.5 28.5t22.5 16.5l676 359v4l-676 360q-18 10 -22.5 16.5t-4.5 28.5v37q0 34 29 20l766 -415q14 -6 19 -13t5 -22v-25q0 -21 -24 -34l-766 -414q-29 -17 -29 18z" />
<glyph unicode="?" horiz-adv-x="1132" d="M68 1178q132 338 512 338q221 0 351 -120.5t130 -301.5q0 -50 -6.5 -95t-21.5 -82.5t-29 -67t-40.5 -59t-44 -48t-51.5 -43.5t-50 -35.5t-52 -34.5q-39 -27 -62.5 -45t-55 -49t-49 -60.5t-30 -71.5t-12.5 -90q0 -26 -25 -26h-32q-14 0 -19.5 5.5t-5.5 20.5q0 62 14.5 114 t33.5 87t55 71t62.5 56t72.5 51q42 28 63.5 44t57 45.5t54.5 57t40 66t30 85.5t9 102q0 147 -104 243.5t-285 96.5q-310 0 -424 -283q-10 -24 -33 -16l-39 12q-22 8 -14 33zM455 45v12q0 32 12.5 44t44.5 12h10q31 0 43.5 -12t12.5 -44v-12q0 -31 -12.5 -43t-43.5 -12h-10 q-33 0 -45 11.5t-12 43.5z" />
<glyph unicode="@" horiz-adv-x="1843" d="M102 526v142q0 379 215.5 597t597.5 218q261 0 447 -103t278.5 -285.5t92.5 -426.5v-142q0 -105 -30 -189t-81 -135.5t-114 -78.5t-134 -27q-104 0 -127 88q-161 -82 -383 -82q-176 0 -263 86t-87 246v324q0 160 87 248t263 88q207 0 359 -62q41 -18 55 -37t14 -61v-688 q0 -80 84 -80q117 0 200 90.5t83 269.5v144q0 226 -84 392.5t-253 259.5t-407 93q-346 0 -541.5 -198.5t-195.5 -546.5v-144q0 -351 193.5 -540t543.5 -189q63 0 128.5 5.5t118 14t92.5 16.5t70 15t32 7q14 3 14 -9v-39q0 -11 -3 -15t-13 -7q-192 -55 -439 -55 q-386 0 -599.5 207.5t-213.5 588.5zM594 436q0 -262 278 -262q89 0 169.5 17.5t114.5 32.5t58 30v659q0 26 -8.5 37.5t-34.5 22.5q-112 47 -299 47q-278 0 -278 -264v-320z" />
<glyph unicode="A" horiz-adv-x="1294" d="M25 25l567 1415q11 24 35 24h41q26 0 34 -24l568 -1415q11 -25 -21 -25h-37q-23 0 -32.5 5t-12.5 18l-182 452h-680l-180 -452q-5 -14 -14.5 -18.5t-32.5 -4.5h-35q-29 0 -18 25zM334 555h624l-290 727q-8 24 -21 88h-6q0 -41 -16 -88z" />
<glyph unicode="B" horiz-adv-x="1310" d="M168 27v1400q0 15 6 21t21 6h581q184 0 284.5 -94.5t100.5 -272.5q0 -260 -213 -335v-4q127 -28 194.5 -119.5t67.5 -241.5q0 -185 -108.5 -286t-298.5 -101h-608q-15 0 -21 6t-6 21zM262 88h537q151 0 232 78.5t81 228.5q0 147 -81 225t-232 78h-537v-610zM262 784h504 q144 0 221.5 74t77.5 219q0 142 -77 215.5t-222 73.5h-504v-582z" />
<glyph unicode="C" horiz-adv-x="1298" d="M125 477v502q0 237 141.5 370.5t409.5 133.5q231 0 357.5 -88t180.5 -269q4 -14 0 -21t-18 -13l-37 -13q-15 -3 -23 0.5t-12 16.5q-47 156 -150 227.5t-298 71.5q-224 0 -340.5 -108.5t-116.5 -305.5v-506q0 -195 118.5 -305.5t338.5 -110.5q135 0 226 36t142.5 102 t83.5 172q11 24 35 16l39 -14q25 -8 17 -33q-36 -121 -99 -199.5t-174 -123t-270 -44.5q-264 0 -407.5 134.5t-143.5 371.5z" />
<glyph unicode="D" horiz-adv-x="1323" d="M168 27v1400q0 15 6 21t21 6h417q283 0 438.5 -144t155.5 -397v-372q0 -253 -155.5 -397t-438.5 -144h-417q-15 0 -21 6t-6 21zM262 88h352q238 0 368 119t130 334v372q0 215 -129 334t-369 119h-352v-1278z" />
<glyph unicode="E" horiz-adv-x="1167" d="M168 27v1400q0 15 6 21t21 6h835q15 0 21 -6t6 -21v-36q0 -25 -27 -25h-768v-586h680q25 0 25 -24v-37q0 -27 -25 -27h-680v-604h797q26 0 26 -25v-36q0 -27 -26 -27h-864q-15 0 -21 6t-6 21z" />
<glyph unicode="F" horiz-adv-x="1128" d="M168 27v1400q0 15 6 21t21 6h835q15 0 21 -6t6 -21v-36q0 -25 -27 -25h-768v-606h668q15 0 20.5 -6t5.5 -21v-37q0 -14 -5.5 -19t-20.5 -5h-668v-645q0 -15 -5.5 -21t-18.5 -6h-43q-15 0 -21 6t-6 21z" />
<glyph unicode="G" horiz-adv-x="1333" d="M125 479v500q0 237 141.5 370.5t409.5 133.5q231 0 357.5 -88t180.5 -269q4 -14 0 -21t-18 -13l-37 -13q-26 -9 -35 17q-47 156 -150 227.5t-298 71.5q-225 0 -341 -108.5t-116 -305.5v-502q0 -199 118.5 -309.5t340.5 -110.5q218 0 337.5 108.5t119.5 297.5v178h-439 q-26 0 -26 27v37q0 26 26 26h504q27 0 27 -28v-240q0 -228 -143 -361t-406 -133q-267 0 -410 135t-143 373z" />
<glyph unicode="H" d="M168 27v1400q0 15 6 21t21 6h43q13 0 18.5 -6t5.5 -21v-647h866v647q0 27 25 27h43q15 0 21 -6t6 -21v-1400q0 -15 -6 -21t-21 -6h-43q-25 0 -25 27v665h-866v-665q0 -15 -5.5 -21t-18.5 -6h-43q-15 0 -21 6t-6 21z" />
<glyph unicode="I" horiz-adv-x="430" d="M168 27v1400q0 15 6 21t21 6h43q13 0 18.5 -6t5.5 -21v-1400q0 -15 -5.5 -21t-18.5 -6h-43q-15 0 -21 6t-6 21z" />
<glyph unicode="J" horiz-adv-x="1161" d="M45 373q-9 27 16 35l41 14q25 9 33 -16q32 -172 124 -259.5t261 -87.5q188 0 288.5 101.5t100.5 283.5v986q0 24 25 24h45q25 0 25 -24v-986q0 -221 -126 -348t-358 -127q-396 0 -475 404z" />
<glyph unicode="K" horiz-adv-x="1228" d="M168 27v1400q0 15 6 21t21 6h43q13 0 18.5 -6t5.5 -21v-647h254q37 0 51 -2l484 654q11 14 20.5 18t32.5 4h47q14 0 17 -8t-5 -19l-497 -665q91 -21 152 -75t110 -150l258 -510q7 -11 3 -19t-18 -8h-41q-24 0 -33.5 4.5t-17.5 18.5l-239 477q-53 105 -123 149.5 t-195 44.5h-260v-667q0 -15 -5.5 -21t-18.5 -6h-43q-15 0 -21 6t-6 21z" />
<glyph unicode="L" horiz-adv-x="1060" d="M168 27v1400q0 15 6 21t21 6h43q13 0 18.5 -6t5.5 -21v-1339h746q24 0 24 -25v-36q0 -15 -5.5 -21t-18.5 -6h-813q-15 0 -21 6t-6 21z" />
<glyph unicode="M" horiz-adv-x="1628" d="M168 27v1400q0 15 6 21t21 6h32q16 0 23.5 -4.5t15.5 -17.5l549 -969l545 967q13 24 37 24h39q13 0 18.5 -6t5.5 -21v-1400q0 -15 -5.5 -21t-18.5 -6h-41q-25 0 -25 27v940q0 173 14 342h-4q-78 -162 -153 -293l-365 -647q-10 -21 -33 -21h-26q-26 0 -35 21l-371 655 q-70 121 -147 285h-4q12 -181 12 -342v-940q0 -15 -6 -21t-21 -6h-36q-15 0 -21 6t-6 21z" />
<glyph unicode="N" horiz-adv-x="1409" d="M168 27v1400q0 15 6 21t21 6h41q19 0 28 -14l707 -1010q41 -59 104 -160.5t84 -132.5h4q0 39 -7 165.5t-7 203.5v924q0 13 6 18.5t21 5.5h41q13 0 18.5 -6t5.5 -21v-1400q0 -15 -5.5 -21t-18.5 -6h-43q-20 0 -29 16l-727 1037q-36 51 -91.5 145t-74.5 121h-4 q0 -33 6 -150t6 -188v-954q0 -15 -5.5 -21t-18.5 -6h-41q-15 0 -21 6t-6 21z" />
<glyph unicode="O" horiz-adv-x="1351" d="M125 477v500q0 238 143 372t410 134q264 0 406.5 -134t142.5 -372v-500q0 -238 -142.5 -372t-406.5 -134q-267 0 -410 134t-143 372zM219 477q0 -198 118.5 -308t340.5 -110q219 0 337 110t118 308v500q0 198 -118 308t-337 110q-222 0 -340.5 -110t-118.5 -308v-500z " />
<glyph unicode="P" horiz-adv-x="1265" d="M168 27v1400q0 15 6 21t21 6h550q209 0 331 -118.5t122 -327.5q0 -206 -121.5 -324.5t-331.5 -118.5h-483v-538q0 -15 -5.5 -21t-18.5 -6h-43q-15 0 -21 6t-6 21zM262 653h475q168 0 265.5 94.5t97.5 260.5q0 168 -97.5 263t-265.5 95h-475v-713z" />
<glyph unicode="Q" horiz-adv-x="1372" d="M125 477v500q0 238 143 372t410 134q264 0 406.5 -134t142.5 -372v-500q0 -226 -127 -356l151 -178q17 -19 -4 -37l-28 -23q-19 -19 -37 2l-154 183q-132 -97 -350 -97q-267 0 -410 134t-143 372zM219 477q0 -198 118.5 -308t340.5 -110q219 0 337 110t118 308v500 q0 198 -118 308t-337 110q-222 0 -340.5 -110t-118.5 -308v-500z" />
<glyph unicode="R" horiz-adv-x="1310" d="M168 27v1400q0 15 6 21t21 6h587q195 0 305.5 -108t110.5 -302q0 -175 -96 -278t-264 -117q57 -24 95 -63t73 -105l229 -454q8 -11 4.5 -19t-18.5 -8h-39q-25 0 -35.5 4.5t-16.5 18.5l-212 421q-53 105 -123 150t-195 45h-338v-612q0 -15 -5.5 -21t-18.5 -6h-43 q-15 0 -21 6t-6 21zM262 727h510q155 0 241.5 82.5t86.5 234.5q0 154 -85.5 238t-242.5 84h-510v-639z" />
<glyph unicode="S" horiz-adv-x="1273" d="M84.5 353q2.5 8 17.5 14l39 14q13 5 20.5 2t14.5 -18q66 -156 179 -230t284 -74q446 0 446 324q0 51 -13.5 91.5t-33 68.5t-56 50.5t-67.5 35.5t-83.5 24t-87.5 16.5t-95 12.5q-52 6 -86.5 11t-84 14.5t-82.5 19.5t-74.5 26.5t-68.5 36t-55.5 48t-45 62t-27 77.5 t-10.5 96q0 189 136.5 298.5t377.5 109.5q203 0 329 -76.5t207 -241.5q14 -25 -12 -35l-41 -18q-12 -5 -19 -3t-14 15q-70 139 -175.5 204t-274.5 65q-198 0 -308 -82t-110 -230q0 -51 14 -92t36 -70t59 -52t72 -37t87 -25t92.5 -17t98.5 -12q50 -6 84 -10.5t80.5 -13.5 t79 -19t71.5 -26.5t65 -36t52.5 -47.5t42.5 -61.5t25.5 -77.5t9.5 -95q0 -201 -138 -309.5t-403 -108.5q-213 0 -345 87t-206 272q-6 15 -3.5 23z" />
<glyph unicode="T" horiz-adv-x="1089" d="M27 1391v36q0 15 5.5 21t20.5 6h983q15 0 21 -6t6 -21v-36q0 -25 -27 -25h-444v-1339q0 -27 -25 -27h-43q-15 0 -20.5 6t-5.5 21v1339h-445q-15 0 -20.5 5.5t-5.5 19.5z" />
<glyph unicode="U" d="M156 492v935q0 15 5.5 21t20.5 6h43q25 0 25 -27v-935q0 -204 113 -319.5t333 -115.5q219 0 332 116t113 319v935q0 15 5.5 21t18.5 6h45q25 0 25 -27v-935q0 -244 -137.5 -383.5t-401.5 -139.5q-265 0 -402.5 139.5t-137.5 383.5z" />
<glyph unicode="V" horiz-adv-x="1255" d="M27 1430q-10 24 16 24h39q23 0 31.5 -4t13.5 -18l455 -1178q9 -27 24.5 -75.5t20.5 -61.5h6q5 13 19.5 61.5t23.5 75.5l452 1178q4 13 14 17.5t32 4.5h38q27 0 17 -24l-547 -1405q-8 -25 -35 -25h-39q-26 0 -35 23z" />
<glyph unicode="W" horiz-adv-x="1781" d="M49 1430q-6 24 17 24h51q18 0 25 -4.5t10 -17.5l292 -1102q7 -30 21 -100.5t20 -94.5h4q40 171 46 193l305 1071q5 24 34 24h41q30 0 35 -24l305 -1075q15 -56 43 -189h7q17 95 36 189l295 1108q3 13 10 17.5t25 4.5h45q26 0 17 -24l-379 -1405q-7 -25 -35 -25h-41 q-30 0 -35 23l-305 1079q-23 86 -43 186h-6q-21 -108 -45 -186l-305 -1077q-5 -25 -35 -25h-39q-30 0 -35 23z" />
<glyph unicode="X" horiz-adv-x="1243" d="M35 31l526 706l-512 693q-7 9 -3 16.5t17 7.5h54q21 0 29.5 -4t17.5 -18l459 -619l456 619q9 14 17.5 18t29.5 4h54q12 0 16 -7.5t-4 -16.5l-510 -691l524 -708q9 -12 7 -21.5t-17 -9.5h-53q-23 0 -31.5 4t-17.5 19l-476 643l-471 -643q-11 -15 -19 -19t-30 -4h-51 q-31 0 -12 31z" />
<glyph unicode="Y" horiz-adv-x="1267" d="M30.5 1446q3.5 8 16.5 8h55q23 0 32 -4t16 -18l485 -736l485 736q9 15 17.5 18.5t31.5 3.5h52q13 0 16.5 -8t-2.5 -19l-555 -829v-571q0 -27 -25 -27h-43q-15 0 -20.5 6t-5.5 21v573l-553 827q-6 11 -2.5 19z" />
<glyph unicode="Z" horiz-adv-x="1136" d="M66 27v34q0 20 10 35l860 1270h-836q-15 0 -20.5 5.5t-5.5 19.5v36q0 15 5.5 21t20.5 6h928q15 0 21 -6t6 -21v-32q0 -19 -11 -33l-862 -1272h871q15 0 20.5 -6t5.5 -21v-36q0 -15 -5.5 -21t-20.5 -6h-963q-13 0 -18.5 6t-5.5 21z" />
<glyph unicode="[" horiz-adv-x="526" d="M143 -274v2003q0 15 4.5 19.5t18.5 4.5h309q15 0 20 -4.5t5 -17.5v-35q0 -14 -5 -18.5t-20 -4.5h-246v-1890h246q15 0 20 -5t5 -20v-34q0 -14 -5 -18.5t-20 -4.5h-309q-14 0 -18.5 5t-4.5 20z" />
<glyph unicode="\" horiz-adv-x="802" d="M70 1432q-6 22 16 22h45q15 0 22 -4.5t11 -17.5l569 -1532q7 -23 -16 -23h-45q-15 0 -21.5 4.5t-11.5 18.5z" />
<glyph unicode="]" horiz-adv-x="526" d="M27 -242q0 15 4.5 20t19.5 5h246v1890h-246q-15 0 -19.5 4.5t-4.5 18.5v35q0 14 4.5 18t19.5 4h307q15 0 20 -4.5t5 -19.5v-2003q0 -15 -5 -20t-20 -5h-307q-15 0 -19.5 4.5t-4.5 18.5v34z" />
<glyph unicode="^" horiz-adv-x="1216" d="M117 1096l442 542q15 21 33 21h24q12 0 18 -4.5t15 -16.5l451 -542q22 -31 -15 -31h-41q-21 0 -28.5 4t-18.5 18l-391 478h-6l-383 -478q-12 -15 -19.5 -18.5t-29.5 -3.5h-39q-37 0 -12 31z" />
<glyph unicode="_" horiz-adv-x="1044" d="M59 -27q0 15 6 21t21 6h875q13 0 18.5 -6t5.5 -21v-32q0 -15 -5.5 -21t-18.5 -6h-875q-15 0 -21 6t-6 21v32z" />
<glyph unicode="`" horiz-adv-x="526" d="M55 1456l21 23q15 17 45 2l346 -219q18 -10 4 -27l-14 -16q-11 -13 -33 -5l-365 211q-21 8 -4 31z" />
<glyph unicode="a" horiz-adv-x="1294" d="M25 25l567 1415q11 24 35 24h41q26 0 34 -24l568 -1415q11 -25 -21 -25h-37q-23 0 -32.5 5t-12.5 18l-182 452h-680l-180 -452q-5 -14 -14.5 -18.5t-32.5 -4.5h-35q-29 0 -18 25zM334 555h624l-290 727q-8 24 -21 88h-6q0 -41 -16 -88z" />
<glyph unicode="b" horiz-adv-x="1310" d="M168 27v1400q0 15 6 21t21 6h581q184 0 284.5 -94.5t100.5 -272.5q0 -260 -213 -335v-4q127 -28 194.5 -119.5t67.5 -241.5q0 -185 -108.5 -286t-298.5 -101h-608q-15 0 -21 6t-6 21zM262 88h537q151 0 232 78.5t81 228.5q0 147 -81 225t-232 78h-537v-610zM262 784h504 q144 0 221.5 74t77.5 219q0 142 -77 215.5t-222 73.5h-504v-582z" />
<glyph unicode="c" horiz-adv-x="1298" d="M125 477v502q0 237 141.5 370.5t409.5 133.5q231 0 357.5 -88t180.5 -269q4 -14 0 -21t-18 -13l-37 -13q-15 -3 -23 0.5t-12 16.5q-47 156 -150 227.5t-298 71.5q-224 0 -340.5 -108.5t-116.5 -305.5v-506q0 -195 118.5 -305.5t338.5 -110.5q135 0 226 36t142.5 102 t83.5 172q11 24 35 16l39 -14q25 -8 17 -33q-36 -121 -99 -199.5t-174 -123t-270 -44.5q-264 0 -407.5 134.5t-143.5 371.5z" />
<glyph unicode="d" horiz-adv-x="1323" d="M168 27v1400q0 15 6 21t21 6h417q283 0 438.5 -144t155.5 -397v-372q0 -253 -155.5 -397t-438.5 -144h-417q-15 0 -21 6t-6 21zM262 88h352q238 0 368 119t130 334v372q0 215 -129 334t-369 119h-352v-1278z" />
<glyph unicode="e" horiz-adv-x="1167" d="M168 27v1400q0 15 6 21t21 6h835q15 0 21 -6t6 -21v-36q0 -25 -27 -25h-768v-586h680q25 0 25 -24v-37q0 -27 -25 -27h-680v-604h797q26 0 26 -25v-36q0 -27 -26 -27h-864q-15 0 -21 6t-6 21z" />
<glyph unicode="f" horiz-adv-x="1128" d="M168 27v1400q0 15 6 21t21 6h835q15 0 21 -6t6 -21v-36q0 -25 -27 -25h-768v-606h668q15 0 20.5 -6t5.5 -21v-37q0 -14 -5.5 -19t-20.5 -5h-668v-645q0 -15 -5.5 -21t-18.5 -6h-43q-15 0 -21 6t-6 21z" />
<glyph unicode="g" horiz-adv-x="1333" d="M125 479v500q0 237 141.5 370.5t409.5 133.5q231 0 357.5 -88t180.5 -269q4 -14 0 -21t-18 -13l-37 -13q-26 -9 -35 17q-47 156 -150 227.5t-298 71.5q-225 0 -341 -108.5t-116 -305.5v-502q0 -199 118.5 -309.5t340.5 -110.5q218 0 337.5 108.5t119.5 297.5v178h-439 q-26 0 -26 27v37q0 26 26 26h504q27 0 27 -28v-240q0 -228 -143 -361t-406 -133q-267 0 -410 135t-143 373z" />
<glyph unicode="h" d="M168 27v1400q0 15 6 21t21 6h43q13 0 18.5 -6t5.5 -21v-647h866v647q0 27 25 27h43q15 0 21 -6t6 -21v-1400q0 -15 -6 -21t-21 -6h-43q-25 0 -25 27v665h-866v-665q0 -15 -5.5 -21t-18.5 -6h-43q-15 0 -21 6t-6 21z" />
<glyph unicode="i" horiz-adv-x="430" d="M168 27v1400q0 15 6 21t21 6h43q13 0 18.5 -6t5.5 -21v-1400q0 -15 -5.5 -21t-18.5 -6h-43q-15 0 -21 6t-6 21z" />
<glyph unicode="j" horiz-adv-x="1161" d="M45 373q-9 27 16 35l41 14q25 9 33 -16q32 -172 124 -259.5t261 -87.5q188 0 288.5 101.5t100.5 283.5v986q0 24 25 24h45q25 0 25 -24v-986q0 -221 -126 -348t-358 -127q-396 0 -475 404z" />
<glyph unicode="k" horiz-adv-x="1228" d="M168 27v1400q0 15 6 21t21 6h43q13 0 18.5 -6t5.5 -21v-647h254q37 0 51 -2l484 654q11 14 20.5 18t32.5 4h47q14 0 17 -8t-5 -19l-497 -665q91 -21 152 -75t110 -150l258 -510q7 -11 3 -19t-18 -8h-41q-24 0 -33.5 4.5t-17.5 18.5l-239 477q-53 105 -123 149.5 t-195 44.5h-260v-667q0 -15 -5.5 -21t-18.5 -6h-43q-15 0 -21 6t-6 21z" />
<glyph unicode="l" horiz-adv-x="1060" d="M168 27v1400q0 15 6 21t21 6h43q13 0 18.5 -6t5.5 -21v-1339h746q24 0 24 -25v-36q0 -15 -5.5 -21t-18.5 -6h-813q-15 0 -21 6t-6 21z" />
<glyph unicode="m" horiz-adv-x="1628" d="M168 27v1400q0 15 6 21t21 6h32q16 0 23.5 -4.5t15.5 -17.5l549 -969l545 967q13 24 37 24h39q13 0 18.5 -6t5.5 -21v-1400q0 -15 -5.5 -21t-18.5 -6h-41q-25 0 -25 27v940q0 173 14 342h-4q-78 -162 -153 -293l-365 -647q-10 -21 -33 -21h-26q-26 0 -35 21l-371 655 q-70 121 -147 285h-4q12 -181 12 -342v-940q0 -15 -6 -21t-21 -6h-36q-15 0 -21 6t-6 21z" />
<glyph unicode="n" horiz-adv-x="1409" d="M168 27v1400q0 15 6 21t21 6h41q19 0 28 -14l707 -1010q41 -59 104 -160.5t84 -132.5h4q0 39 -7 165.5t-7 203.5v924q0 13 6 18.5t21 5.5h41q13 0 18.5 -6t5.5 -21v-1400q0 -15 -5.5 -21t-18.5 -6h-43q-20 0 -29 16l-727 1037q-36 51 -91.5 145t-74.5 121h-4 q0 -33 6 -150t6 -188v-954q0 -15 -5.5 -21t-18.5 -6h-41q-15 0 -21 6t-6 21z" />
<glyph unicode="o" horiz-adv-x="1351" d="M125 477v500q0 238 143 372t410 134q264 0 406.5 -134t142.5 -372v-500q0 -238 -142.5 -372t-406.5 -134q-267 0 -410 134t-143 372zM219 477q0 -198 118.5 -308t340.5 -110q219 0 337 110t118 308v500q0 198 -118 308t-337 110q-222 0 -340.5 -110t-118.5 -308v-500z " />
<glyph unicode="p" horiz-adv-x="1265" d="M168 27v1400q0 15 6 21t21 6h550q209 0 331 -118.5t122 -327.5q0 -206 -121.5 -324.5t-331.5 -118.5h-483v-538q0 -15 -5.5 -21t-18.5 -6h-43q-15 0 -21 6t-6 21zM262 653h475q168 0 265.5 94.5t97.5 260.5q0 168 -97.5 263t-265.5 95h-475v-713z" />
<glyph unicode="q" horiz-adv-x="1372" d="M125 477v500q0 238 143 372t410 134q264 0 406.5 -134t142.5 -372v-500q0 -226 -127 -356l151 -178q17 -19 -4 -37l-28 -23q-19 -19 -37 2l-154 183q-132 -97 -350 -97q-267 0 -410 134t-143 372zM219 477q0 -198 118.5 -308t340.5 -110q219 0 337 110t118 308v500 q0 198 -118 308t-337 110q-222 0 -340.5 -110t-118.5 -308v-500z" />
<glyph unicode="r" horiz-adv-x="1310" d="M168 27v1400q0 15 6 21t21 6h587q195 0 305.5 -108t110.5 -302q0 -175 -96 -278t-264 -117q57 -24 95 -63t73 -105l229 -454q8 -11 4.5 -19t-18.5 -8h-39q-25 0 -35.5 4.5t-16.5 18.5l-212 421q-53 105 -123 150t-195 45h-338v-612q0 -15 -5.5 -21t-18.5 -6h-43 q-15 0 -21 6t-6 21zM262 727h510q155 0 241.5 82.5t86.5 234.5q0 154 -85.5 238t-242.5 84h-510v-639z" />
<glyph unicode="s" horiz-adv-x="1273" d="M84.5 353q2.5 8 17.5 14l39 14q13 5 20.5 2t14.5 -18q66 -156 179 -230t284 -74q446 0 446 324q0 51 -13.5 91.5t-33 68.5t-56 50.5t-67.5 35.5t-83.5 24t-87.5 16.5t-95 12.5q-52 6 -86.5 11t-84 14.5t-82.5 19.5t-74.5 26.5t-68.5 36t-55.5 48t-45 62t-27 77.5 t-10.5 96q0 189 136.5 298.5t377.5 109.5q203 0 329 -76.5t207 -241.5q14 -25 -12 -35l-41 -18q-12 -5 -19 -3t-14 15q-70 139 -175.5 204t-274.5 65q-198 0 -308 -82t-110 -230q0 -51 14 -92t36 -70t59 -52t72 -37t87 -25t92.5 -17t98.5 -12q50 -6 84 -10.5t80.5 -13.5 t79 -19t71.5 -26.5t65 -36t52.5 -47.5t42.5 -61.5t25.5 -77.5t9.5 -95q0 -201 -138 -309.5t-403 -108.5q-213 0 -345 87t-206 272q-6 15 -3.5 23z" />
<glyph unicode="t" horiz-adv-x="1089" d="M27 1391v36q0 15 5.5 21t20.5 6h983q15 0 21 -6t6 -21v-36q0 -25 -27 -25h-444v-1339q0 -27 -25 -27h-43q-15 0 -20.5 6t-5.5 21v1339h-445q-15 0 -20.5 5.5t-5.5 19.5z" />
<glyph unicode="u" d="M156 492v935q0 15 5.5 21t20.5 6h43q25 0 25 -27v-935q0 -204 113 -319.5t333 -115.5q219 0 332 116t113 319v935q0 15 5.5 21t18.5 6h45q25 0 25 -27v-935q0 -244 -137.5 -383.5t-401.5 -139.5q-265 0 -402.5 139.5t-137.5 383.5z" />
<glyph unicode="v" horiz-adv-x="1255" d="M27 1430q-10 24 16 24h39q23 0 31.5 -4t13.5 -18l455 -1178q9 -27 24.5 -75.5t20.5 -61.5h6q5 13 19.5 61.5t23.5 75.5l452 1178q4 13 14 17.5t32 4.5h38q27 0 17 -24l-547 -1405q-8 -25 -35 -25h-39q-26 0 -35 23z" />
<glyph unicode="w" horiz-adv-x="1781" d="M49 1430q-6 24 17 24h51q18 0 25 -4.5t10 -17.5l292 -1102q7 -30 21 -100.5t20 -94.5h4q40 171 46 193l305 1071q5 24 34 24h41q30 0 35 -24l305 -1075q15 -56 43 -189h7q17 95 36 189l295 1108q3 13 10 17.5t25 4.5h45q26 0 17 -24l-379 -1405q-7 -25 -35 -25h-41 q-30 0 -35 23l-305 1079q-23 86 -43 186h-6q-21 -108 -45 -186l-305 -1077q-5 -25 -35 -25h-39q-30 0 -35 23z" />
<glyph unicode="x" horiz-adv-x="1243" d="M35 31l526 706l-512 693q-7 9 -3 16.5t17 7.5h54q21 0 29.5 -4t17.5 -18l459 -619l456 619q9 14 17.5 18t29.5 4h54q12 0 16 -7.5t-4 -16.5l-510 -691l524 -708q9 -12 7 -21.5t-17 -9.5h-53q-23 0 -31.5 4t-17.5 19l-476 643l-471 -643q-11 -15 -19 -19t-30 -4h-51 q-31 0 -12 31z" />
<glyph unicode="y" horiz-adv-x="1267" d="M30.5 1446q3.5 8 16.5 8h55q23 0 32 -4t16 -18l485 -736l485 736q9 15 17.5 18.5t31.5 3.5h52q13 0 16.5 -8t-2.5 -19l-555 -829v-571q0 -27 -25 -27h-43q-15 0 -20.5 6t-5.5 21v573l-553 827q-6 11 -2.5 19z" />
<glyph unicode="z" horiz-adv-x="1136" d="M66 27v34q0 20 10 35l860 1270h-836q-15 0 -20.5 5.5t-5.5 19.5v36q0 15 5.5 21t20.5 6h928q15 0 21 -6t6 -21v-32q0 -19 -11 -33l-862 -1272h871q15 0 20.5 -6t5.5 -21v-36q0 -15 -5.5 -21t-20.5 -6h-963q-13 0 -18.5 6t-5.5 21z" />
<glyph unicode="{" horiz-adv-x="626" d="M8 705v40q0 25 21 25h22q101 0 144 52.5t43 156.5v516q0 135 57 196.5t192 61.5h93q13 0 17.5 -5t4.5 -19v-33q0 -14 -4.5 -19.5t-17.5 -5.5h-91q-89 0 -127 -43.5t-38 -136.5v-522q0 -188 -136 -244q136 -47 136 -244v-520q0 -93 38 -136.5t127 -43.5h91q13 0 17.5 -5.5 t4.5 -19.5v-32q0 -14 -4.5 -19.5t-17.5 -5.5h-91q-137 0 -194 61.5t-57 196.5v514q0 105 -43 157t-144 52h-22q-21 0 -21 25z" />
<glyph unicode="|" horiz-adv-x="370" d="M143 -276v2005q0 24 23 24h37q13 0 18.5 -5.5t5.5 -18.5v-2005q0 -25 -24 -25h-37q-23 0 -23 25z" />
<glyph unicode="}" horiz-adv-x="626" d="M23 -244q0 25 24 25h88q90 0 129 43.5t39 136.5v520q0 198 135 244q-135 54 -135 244v522q0 93 -39 136.5t-129 43.5h-88q-24 0 -24 25v33q0 13 5.5 18.5t18.5 5.5h90q136 0 194 -62t58 -196v-516q0 -104 43 -156.5t143 -52.5h23q20 0 20 -25v-40q0 -25 -20 -25h-23 q-101 0 -143.5 -52t-42.5 -157v-514q0 -135 -57.5 -196.5t-194.5 -61.5h-90q-24 0 -24 25v32z" />
<glyph unicode="~" horiz-adv-x="1150" d="M145 606q-21 19 0 37q110 102 238 102q68 0 134 -23t127.5 -46t119.5 -23q99 0 188 82q10 9 17.5 8.5t17.5 -10.5l25 -22q20 -17 0 -37q-116 -101 -240 -101q-55 0 -109 14t-90.5 31.5t-85.5 31.5t-96 14q-56 0 -98.5 -20t-89.5 -62q-11 -9 -17.5 -8t-17.5 10z" />
<glyph unicode="&#xa1;" horiz-adv-x="364" d="M123 985v12q0 32 11.5 44t43.5 12h10q32 0 44 -12t12 -44v-12q0 -31 -12 -43t-44 -12h-10q-32 0 -43.5 12t-11.5 43zM135 -449l12 1160q0 24 25 24h23q22 0 22 -24l12 -1160q3 -24 -22 -24h-47q-25 0 -25 24z" />
<glyph unicode="&#xa2;" horiz-adv-x="1091" d="M117 369v313q0 175 99.5 279t289.5 114v150q0 13 5 18.5t19 5.5h41q25 0 25 -24v-150q164 -7 253 -76t128 -200q8 -26 -16 -35l-33 -12q-23 -8 -35 16q-36 121 -114.5 176t-227.5 55q-170 0 -258 -82.5t-88 -230.5v-319q0 -148 89.5 -232t256.5 -84q145 0 229 59.5 t119 184.5q8 24 33 16l37 -12q24 -10 14 -33q-42 -139 -136 -211.5t-251 -81.5v-120q0 -25 -25 -25h-41q-24 0 -24 25v120q-188 9 -288.5 114t-100.5 282z" />
<glyph unicode="&#xa3;" horiz-adv-x="1288" d="M78 27v36q0 23 16 23h45q56 3 93.5 38.5t52 81.5t14.5 99v346h-172q-15 0 -21 6t-6 21v31q0 15 6 20.5t21 5.5h172v375q0 80 25 146t75 117.5t133 80.5t191 29q174 0 283.5 -74t167.5 -244q10 -23 -17 -32l-39 -15q-14 -5 -20.5 -1t-12.5 18q-54 145 -138 202.5 t-222 57.5q-166 0 -247 -79t-81 -208v-373h568q14 0 19 -5.5t5 -20.5v-31q0 -15 -5.5 -21t-18.5 -6h-568v-344q0 -149 -102 -221v-4q198 6 237 6h617q25 0 25 -25v-36q0 -27 -25 -27h-1047q-13 0 -18.5 6t-5.5 21z" />
<glyph unicode="&#xa4;" horiz-adv-x="1216" d="M135 1098q-16 16 0 32l29 29q18 17 35 0l114 -115q128 109 295 109q169 0 291 -106l115 114q18 17 35 0l28 -26q17 -17 0 -35l-114 -115q110 -126 110 -297q0 -166 -106 -291l114 -114q17 -17 0 -35l-28 -29q-17 -17 -33 0l-117 115q-127 -111 -295 -111q-163 0 -293 107 l-114 -115q-17 -17 -33 0l-29 29q-16 16 0 32l115 117q-111 124 -111 295q0 168 109 293zM227 690q0 -159 111 -271t270 -112t270 112t111 271q0 160 -110.5 269.5t-270.5 109.5t-270.5 -109.5t-110.5 -269.5z" />
<glyph unicode="&#xa5;" horiz-adv-x="1288" d="M63.5 1446q3.5 8 16.5 8h49q23 0 31.5 -3.5t15.5 -18.5l471 -707l469 707q9 15 17.5 18.5t31.5 3.5h45q14 0 18 -8t-3 -19l-496 -733h299q25 0 25 -24v-25q0 -22 -25 -22h-336v-222h336q25 0 25 -24v-25q0 -22 -25 -22h-336v-303q0 -15 -5.5 -21t-20.5 -6h-43 q-25 0 -25 27v303h-340q-25 0 -25 22v25q0 24 25 24h340v222h-340q-25 0 -25 22v25q0 24 25 24h303l-495 733q-6 11 -2.5 19z" />
<glyph unicode="&#xa6;" horiz-adv-x="389" d="M154 -274v821q0 24 22 24h37q23 0 23 -24v-821q0 -25 -23 -25h-37q-22 0 -22 25zM154 907v822q0 24 22 24h37q23 0 23 -24v-822q0 -24 -23 -24h-37q-22 0 -22 24z" />
<glyph unicode="&#xa7;" horiz-adv-x="1208" d="M106 -106q-9 23 19 32l37 15q13 5 21 1.5t14 -20.5q99 -291 415 -291q198 0 297 72.5t99 198.5q0 37 -8 68t-19.5 54t-33.5 42.5t-41 32.5t-52.5 24t-56.5 17t-64 12t-65.5 9t-69.5 7q-48 5 -78.5 9t-76 11.5t-75 16t-67 23t-62 31.5t-50.5 42t-40.5 54.5t-24 69 t-9.5 85.5q0 55 16 103.5t39.5 81.5t57 61.5t61.5 44.5t59 30q-221 70 -221 306q0 165 115.5 261.5t351.5 96.5q371 0 496 -344q11 -24 -17 -35l-37 -16q-24 -11 -35 16q-104 291 -407 291q-192 0 -282.5 -72t-90.5 -198q0 -36 7.5 -67t19 -54.5t33 -43t40.5 -33t51.5 -24.5 t55.5 -18t63 -13.5t64.5 -9.5t67.5 -8q55 -6 97 -12.5t92.5 -19.5t87.5 -29t73.5 -42t59.5 -59t37.5 -79.5t14.5 -102.5q0 -204 -206 -315q105 -34 164 -105t59 -200q0 -164 -124 -261.5t-366 -97.5q-384 0 -506 351zM211 520q0 -52 14.5 -92.5t44.5 -67.5t62.5 -45 t84 -29.5t91.5 -17.5t102 -12q147 -16 172 -20q19 8 38 18.5t52 35.5t56.5 54t42 75t18.5 97q0 59 -22.5 103.5t-56.5 71.5t-88 45.5t-103 27t-115 14.5q-89 10 -158 21q-22 -6 -44 -15t-59 -31.5t-64 -51t-47.5 -76.5t-20.5 -105z" />
<glyph unicode="&#xa8;" horiz-adv-x="899" d="M195 1323v14q0 27 9.5 37t35.5 10h14q27 0 36 -10t9 -37v-14q0 -27 -9 -36t-36 -9h-14q-26 0 -35.5 9.5t-9.5 35.5zM584 1323v14q0 27 10 37t39 10h10q27 0 38 -10.5t11 -36.5v-14q0 -26 -11 -35.5t-38 -9.5h-10q-29 0 -39 9.5t-10 35.5z" />
<glyph unicode="&#xa9;" horiz-adv-x="1660" d="M96 719q0 205 97 373.5t266.5 265t374.5 96.5q151 0 286.5 -57t233 -154.5t154.5 -234t57 -289.5t-57 -289t-154.5 -234t-233 -155t-286.5 -57q-153 0 -290 57.5t-235 155.5t-155.5 234t-57.5 288zM164 719q0 -186 88 -339.5t241.5 -242t340.5 -88.5q184 0 336 88.5 t239.5 242t87.5 339.5t-87.5 339.5t-239.5 240.5t-336 87q-187 0 -340.5 -87t-241.5 -240t-88 -340zM504 588v243q0 139 82.5 217t238.5 78q135 0 208.5 -52t103.5 -156q8 -19 -11 -27l-24 -8q-12 -3 -17.5 -0.5t-9.5 12.5q-27 91 -82 129.5t-170 38.5q-127 0 -189.5 -59 t-62.5 -170v-246q0 -109 64 -170.5t188 -61.5q109 0 168.5 43t87.5 138q5 17 27 12l22 -8q20 -8 15 -25q-67 -223 -318 -223q-154 0 -237.5 79t-83.5 216z" />
<glyph unicode="&#xaa;" horiz-adv-x="763" d="M115 903q0 92 60.5 139.5t201.5 47.5q100 0 188 -13v45q0 93 -40.5 140t-141.5 47q-120 0 -186 -97q-13 -10 -27 -4l-23 11q-24 13 -10 32q81 121 248 121q138 0 195 -65t57 -189v-254q0 -46 -14 -66t-54 -40q-70 -31 -196 -31q-139 0 -198.5 44.5t-59.5 131.5zM186 905 q0 -119 185 -119q92 0 151 23q26 11 34.5 23t8.5 42v146q-87 12 -190 12q-106 0 -147.5 -32t-41.5 -95z" />
<glyph unicode="&#xab;" horiz-adv-x="1130" d="M84 522q-16 16 0 31l420 424q16 14 33 0l24 -27q16 -16 0 -32l-377 -379l377 -375q14 -17 0 -31l-29 -29q-15 -15 -32 0zM543 522q-13 16 0 31l422 424q15 15 30 0l27 -27q15 -17 0 -32l-377 -379l375 -375q17 -17 0 -31l-27 -29q-17 -15 -32 0z" />
<glyph unicode="&#xac;" horiz-adv-x="1179" d="M141 715v35q0 24 25 24h854q14 0 19 -5t5 -19v-441q0 -22 -24 -22h-41q-25 0 -25 22v381h-788q-25 0 -25 25z" />
<glyph unicode="&#xad;" horiz-adv-x="872" d="M131 526v35q0 25 27 25h559q24 0 24 -25v-35q0 -14 -5.5 -19t-18.5 -5h-559q-15 0 -21 5.5t-6 18.5z" />
<glyph unicode="&#xae;" horiz-adv-x="999" d="M102 1057q0 163 118 280t282 117q163 0 279 -117t116 -280q0 -164 -116 -281t-279 -117q-164 0 -282 117t-118 281zM152 1057q0 -145 103 -248.5t249 -103.5q143 0 245.5 103.5t102.5 248.5q0 144 -102.5 247t-245.5 103q-146 0 -249 -102.5t-103 -247.5zM338 856v393 q0 11 4 15t16 4h189q65 0 104 -35.5t39 -99.5q0 -52 -26 -84t-72 -41l82 -144q14 -18 -8 -18h-21q-15 0 -22 10l-82 145h-156v-145q0 -10 -12 -10h-23q-12 0 -12 10zM385 1044h160q45 0 70.5 23t25.5 66q0 42 -25.5 66t-70.5 24h-160v-179z" />
<glyph unicode="&#xaf;" horiz-adv-x="720" d="M90 1319v22q0 13 5.5 18t17.5 5h487q14 0 18.5 -5t4.5 -18v-22q0 -23 -23 -23h-487q-23 0 -23 23z" />
<glyph unicode="&#xb0;" horiz-adv-x="784" d="M94 1137q0 125 87 211t212 86q124 0 210.5 -86t86.5 -211q0 -122 -88 -210.5t-209 -88.5q-125 0 -212 87t-87 212zM168 1137q0 -94 65.5 -159t159.5 -65q90 0 155.5 66.5t65.5 157.5q0 92 -64.5 157.5t-156.5 65.5q-94 0 -159.5 -65.5t-65.5 -157.5z" />
<glyph unicode="&#xb1;" horiz-adv-x="1349" d="M190 297v27q0 26 27 26h916q14 0 19 -5.5t5 -20.5v-27q0 -25 -24 -25h-916q-27 0 -27 25zM190 797v26q0 27 27 27h418v272q0 15 6 21t21 6h28q15 0 21 -6t6 -21v-272h416q13 0 18.5 -6t5.5 -21v-26q0 -25 -24 -25h-416v-266q0 -15 -6 -21t-21 -6h-28q-15 0 -21 6t-6 21 v266h-418q-27 0 -27 25z" />
<glyph unicode="&#xb2;" horiz-adv-x="718" d="M78 874v89q0 93 37 151t121 90l124 47q8 3 37 13.5t38.5 14.5t32.5 15t31.5 18t24 21t21.5 27.5t11 32.5t5 41q0 77 -49.5 123.5t-144.5 46.5q-37 0 -68.5 -9.5t-52.5 -25t-37 -33.5t-25.5 -37.5t-15.5 -34.5t-9 -27l-3 -12q-6 -15 -12.5 -18t-20.5 0l-25 8q-28 6 -16 33 q0 1 4.5 15t9 25t13.5 30.5t20.5 35.5t27 35t37 33.5t46.5 27t58.5 19t70.5 6.5q131 0 201.5 -66t70.5 -173q0 -39 -8.5 -70.5t-28 -55t-38 -40t-53 -32t-56.5 -24t-64 -22.5l-125 -45q-116 -44 -116 -162v-67h458q23 0 23 -23v-25q0 -12 -5 -17t-18 -5h-504 q-15 0 -21.5 5.5t-6.5 20.5z" />
<glyph unicode="&#xb3;" horiz-adv-x="737" d="M71 1076q2 6 15 9l27 11q23 6 30 -19q28 -94 82 -135t158 -41q99 0 151 45t52 121q0 67 -40 112.5t-106 45.5h-145q-14 0 -18.5 4.5t-4.5 19.5v21q0 17 4 20.5t21 3.5h139q64 0 96.5 42t32.5 104q0 75 -47.5 120.5t-132.5 45.5q-97 0 -153 -43t-82 -136q-6 -17 -14 -20.5 t-25 2.5l-19 6q-24 9 -16 35q34 117 108 171t201 54q120 0 187 -62t67 -165q0 -131 -104 -182q127 -58 127 -207q0 -104 -71.5 -166t-207.5 -62q-129 0 -202.5 55.5t-106.5 166.5q-5 17 -3 23z" />
<glyph unicode="&#xb4;" horiz-adv-x="526" d="M63 1235q-16 16 3 27l346 219q31 14 47 -2l18 -23q18 -24 -4 -31l-362 -211q-25 -8 -33 5z" />
<glyph unicode="&#xb5;" horiz-adv-x="1110" d="M133 -426v1452q0 23 25 23h41q22 0 22 -23v-657q0 -320 320 -320q171 0 305 55q28 11 36.5 26.5t8.5 41.5v854q0 23 22 23h41q25 0 25 -23v-879q0 -45 -16 -67.5t-62 -42.5q-169 -68 -354 -68q-246 0 -328 174l2 -569q0 -25 -22 -25h-43q-23 0 -23 25z" />
<glyph unicode="&#xb6;" horiz-adv-x="735" d="M104 1247q0 94 57.5 150.5t151.5 56.5h242q25 0 25 -24v-1588q0 -24 -25 -24h-37q-22 0 -22 24v1522h-107v-1522q0 -14 -5.5 -19t-18.5 -5h-35q-25 0 -25 24v1200q-90 2 -145.5 58.5t-55.5 146.5z" />
<glyph unicode="&#xb7;" horiz-adv-x="393" d="M135 541v12q0 31 11.5 43t43.5 12h11q32 0 44.5 -12t12.5 -43v-12q0 -32 -12.5 -44t-44.5 -12h-11q-32 0 -43.5 12t-11.5 44z" />
<glyph unicode="&#xb8;" horiz-adv-x="514" d="M61 -399q0 7 4.5 10t10.5 -2q69 -53 168 -53q75 0 117 35.5t42 99.5q0 100 -139 100q-44 0 -78 -12q-14 -3 -19 4t1 24l74 193h57l-59 -168q24 8 65 8q82 0 129.5 -41.5t46.5 -111.5q-3 -93 -65.5 -142t-163.5 -49q-93 0 -172 45q-19 11 -19 33v27z" />
<glyph unicode="&#xb9;" horiz-adv-x="571" d="M43 1436q-10 23 10 34l320 181q13 8 33 8h16q24 0 24 -25v-762q0 -14 -5 -19t-19 -5h-27q-13 0 -18.5 5t-5.5 19v691l-281 -156q-25 -13 -37 8z" />
<glyph unicode="&#xba;" horiz-adv-x="772" d="M115 971v159q0 114 70 178t200 64q133 0 201.5 -63.5t68.5 -178.5v-159q0 -116 -68.5 -179t-201.5 -63q-131 0 -200.5 63.5t-69.5 178.5zM188 969q0 -82 51 -127t146 -45q96 0 146.5 45t50.5 127v164q0 81 -51 126.5t-146 45.5q-94 0 -145.5 -46t-51.5 -126v-164z" />
<glyph unicode="&#xbb;" horiz-adv-x="1130" d="M106 918q-15 15 0 32l27 27q15 15 31 0l422 -424q13 -15 0 -31l-418 -418q-16 -16 -33 0l-26 29q-17 14 0 31l376 375zM567 133q-14 14 0 31l377 375l-377 379q-16 16 0 32l25 27q16 14 33 0l422 -424q13 -15 0 -31l-418 -418q-18 -15 -33 0z" />
<glyph unicode="&#xbc;" horiz-adv-x="1591" d="M70 1243q-12 22 10 35l319 180q13 8 33 8h17q13 0 18.5 -5t5.5 -19v-762q0 -25 -24 -25h-27q-27 0 -27 25v690l-280 -156q-23 -13 -35 9zM242 7.5q-3 7.5 6 19.5l1032 1403q11 15 19 19.5t28 4.5h37q14 0 17.5 -7.5t-3.5 -19.5l-1032 -1402q-13 -16 -22 -20.5t-31 -4.5 h-33q-15 0 -18 7.5zM889 252v18q0 21 8 31l406 496q14 16 36 16h33q15 0 20 -5t5 -22v-491h102q15 0 19 -4.5t4 -16.5v-22q0 -14 -4 -18.5t-19 -4.5h-102v-206q0 -13 -4.5 -18t-18.5 -5h-31q-12 0 -16 4.5t-4 18.5v206h-412q-13 0 -17.5 4.5t-4.5 18.5zM979 295h344v420z " />
<glyph unicode="&#xbd;" horiz-adv-x="1726" d="M68 1247q-10 23 10 35l319 180q13 8 33 8h16q25 0 25 -24v-762q0 -25 -25 -25h-26q-25 0 -25 25v690l-280 -155q-25 -13 -37 8zM242 7.5q-3 7.5 6 19.5l1032 1403q11 15 19 19.5t28 4.5h35q15 0 19 -7.5t-5 -19.5l-1032 -1402q-11 -16 -20 -20.5t-33 -4.5h-31 q-15 0 -18 7.5zM1073 27v88q0 93 38 151t122 90l125 47q8 3 37 13.5t38.5 14.5t32.5 15t31.5 18t24 21t21.5 27.5t11 32.5t5 41q0 76 -50.5 123t-144.5 47q-37 0 -68.5 -9.5t-52.5 -25t-37.5 -33t-26.5 -37t-15.5 -34.5t-9.5 -27l-3 -12q-5 -14 -11.5 -18t-19.5 -1l-26 8 q-26 6 -17 33l5 14q4 15 8.5 26t13.5 31t21 36t28 35.5t37 33.5t46.5 27t59 19.5t70.5 6.5q129 0 199.5 -67t70.5 -174q0 -33 -7.5 -61.5t-17.5 -48.5t-31.5 -39t-37 -30t-47.5 -25t-49 -20.5t-55 -19.5l-125 -45q-119 -41 -119 -162v-65h459q24 0 24 -25v-24q0 -23 -24 -23 h-504q-29 0 -29 27z" />
<glyph unicode="&#xbe;" horiz-adv-x="1675" d="M86.5 887.5q2.5 6.5 13.5 9.5l27 10q26 6 33 -18q28 -95 81 -135.5t158 -40.5q99 0 151 45t52 121q0 67 -39.5 112t-105.5 45h-146q-13 0 -17.5 5t-4.5 20v20q0 17 3.5 21t20.5 4h138q65 0 98 42t33 105q0 75 -48 119.5t-133 44.5q-98 0 -153.5 -42.5t-81.5 -135.5 q-6 -17 -15 -20.5t-24 2.5l-21 6q-22 9 -14 35q34 117 108 171t201 54q120 0 187 -62t67 -165q0 -132 -104 -183q127 -58 127 -207q0 -104 -71.5 -165.5t-207.5 -61.5q-129 0 -202.5 55t-108.5 166q-4 17 -1.5 23.5zM330 7.5q-3 7.5 6 19.5l1032 1403q11 15 19.5 19.5 t29.5 4.5h35q14 0 17.5 -7.5t-3.5 -19.5l-1032 -1402q-13 -16 -22 -20.5t-31 -4.5h-33q-15 0 -18 7.5zM973 252v18q0 21 8 31l405 496q14 16 37 16h33q15 0 20 -5t5 -22v-491h102q15 0 20 -4.5t5 -16.5v-22q0 -14 -5 -18.5t-20 -4.5h-102v-206q0 -13 -4.5 -18t-18.5 -5h-31 q-12 0 -16 4.5t-4 18.5v206h-412q-12 0 -17 5t-5 18zM1063 295h344v420z" />
<glyph unicode="&#xbf;" horiz-adv-x="1120" d="M68 -49q0 77 18 142.5t41.5 108t67.5 85.5t73 64.5t80 56.5q8 5 12 8q50 34 79.5 58t64 62.5t51 87t16.5 107.5q0 15 5.5 20t19.5 5h31q14 0 19 -5t5 -20q0 -62 -14 -114t-33.5 -87t-55 -71t-62 -56t-72.5 -51q-39 -27 -54.5 -38t-49.5 -38t-49.5 -45.5t-39 -51t-34 -63 t-19 -73t-8.5 -90.5q0 -147 104 -243.5t287 -96.5q313 0 422 283q10 24 33 16l38 -12q26 -9 15 -33q-127 -338 -510 -338q-222 0 -351.5 120.5t-129.5 301.5zM549 987v10q0 32 12.5 45t44.5 13h10q32 0 44 -12t12 -46v-10q0 -32 -12 -43.5t-44 -11.5h-10q-33 0 -45 11.5 t-12 43.5z" />
<glyph unicode="&#xc0;" horiz-adv-x="1294" d="M25 25l567 1415q11 24 35 24h41q26 0 34 -24l568 -1415q11 -25 -21 -25h-37q-23 0 -32.5 5t-12.5 18l-182 452h-680l-180 -452q-5 -14 -14.5 -18.5t-32.5 -4.5h-35q-29 0 -18 25zM334 555h624l-290 727q-8 24 -21 88h-6q0 -41 -16 -88zM436 1792l21 23q14 19 45 4 l352 -209q18 -10 4 -29l-14 -16q-11 -13 -33 -2l-371 200q-22 8 -4 29z" />
<glyph unicode="&#xc1;" horiz-adv-x="1294" d="M25 25l567 1415q11 24 35 24h41q26 0 34 -24l568 -1415q11 -25 -21 -25h-37q-23 0 -32.5 5t-12.5 18l-182 452h-680l-180 -452q-5 -14 -14.5 -18.5t-32.5 -4.5h-35q-29 0 -18 25zM334 555h624l-290 727q-8 24 -21 88h-6q0 -41 -16 -88zM440 1585q-15 18 4 29l347 219 q29 14 45 -4l20 -23q17 -20 -4 -30l-365 -209q-22 -8 -32 2z" />
<glyph unicode="&#xc2;" horiz-adv-x="1294" d="M25 25l567 1415q11 24 35 24h41q26 0 34 -24l568 -1415q11 -25 -21 -25h-37q-23 0 -32.5 5t-12.5 18l-182 452h-680l-180 -452q-5 -14 -14.5 -18.5t-32.5 -4.5h-35q-29 0 -18 25zM314.5 1571.5q-3.5 6.5 4.5 13.5l275 230q16 16 23 19t26 3h10q18 0 24.5 -2.5t24.5 -19.5 l273 -230q16 -20 -14 -20h-37q-27 0 -41 14l-236 195l-237 -195q-16 -14 -39 -14h-37q-16 0 -19.5 6.5zM334 555h624l-290 727q-8 24 -21 88h-6q0 -41 -16 -88z" />
<glyph unicode="&#xc3;" horiz-adv-x="1294" d="M25 25l567 1415q11 24 35 24h41q26 0 34 -24l568 -1415q11 -25 -21 -25h-37q-23 0 -32.5 5t-12.5 18l-182 452h-680l-180 -452q-5 -14 -14.5 -18.5t-32.5 -4.5h-35q-29 0 -18 25zM328 1599q0 93 39 143t114 50q41 0 78.5 -15t65.5 -37t54.5 -43.5t57.5 -36.5t64 -15 q49 0 73.5 35t24.5 96q0 16 16 16h27q19 0 19 -16q0 -93 -38.5 -143t-115.5 -50q-40 0 -76.5 15t-64 37t-54.5 44t-59 37t-66 15q-46 0 -72 -36t-26 -96q0 -16 -16 -16h-29q-16 0 -16 16zM334 555h624l-290 727q-8 24 -21 88h-6q0 -41 -16 -88z" />
<glyph unicode="&#xc4;" horiz-adv-x="1294" d="M25 25l567 1415q11 24 35 24h41q26 0 34 -24l568 -1415q11 -25 -21 -25h-37q-23 0 -32.5 5t-12.5 18l-182 452h-680l-180 -452q-5 -14 -14.5 -18.5t-32.5 -4.5h-35q-29 0 -18 25zM334 555h624l-290 727q-8 24 -21 88h-6q0 -41 -16 -88zM397 1686v14q0 26 10.5 36.5 t36.5 10.5h13q28 0 37.5 -10t9.5 -37v-14q0 -27 -9 -36.5t-38 -9.5h-13q-26 0 -36.5 10t-10.5 36zM788 1686v14q0 27 10.5 37t39.5 10h10q26 0 36.5 -10.5t10.5 -36.5v-14q0 -26 -10.5 -36t-36.5 -10h-10q-29 0 -39.5 10t-10.5 36z" />
<glyph unicode="&#xc5;" horiz-adv-x="1294" d="M25 25l561 1398q-69 14 -107.5 63t-38.5 124q0 92 57 147t152 55q94 0 149.5 -55t55.5 -147q0 -76 -38 -125.5t-107 -63.5l561 -1396q11 -25 -21 -25h-37q-23 0 -32.5 5t-12.5 18l-182 452h-680l-180 -452q-5 -14 -14.5 -18.5t-32.5 -4.5h-35q-29 0 -18 25zM334 555h624 l-290 727q-8 24 -21 88h-6q0 -41 -16 -88zM498 1610q0 -67 40.5 -106.5t110.5 -39.5q67 0 107.5 40t40.5 106t-40.5 105.5t-107.5 39.5q-70 0 -110.5 -39.5t-40.5 -105.5z" />
<glyph unicode="&#xc6;" horiz-adv-x="1673" d="M-6 25l856 1405q9 15 15.5 19.5t19.5 4.5h653q25 0 25 -27v-36q0 -25 -25 -25h-577v-586h487q15 0 21 -5.5t6 -20.5v-37q0 -25 -27 -25h-487v-604h606q24 0 24 -25v-36q0 -15 -5.5 -21t-18.5 -6h-674q-25 0 -25 27v356h-553l-217 -360q-8 -13 -16.5 -18t-28.5 -5h-41 q-29 0 -18 25zM365 463h503v837z" />
<glyph unicode="&#xc7;" horiz-adv-x="1298" d="M125 477v502q0 237 141.5 370.5t409.5 133.5q231 0 357.5 -88t180.5 -269q4 -14 0 -21t-18 -13l-37 -13q-15 -3 -23 0.5t-12 16.5q-47 156 -150 227.5t-298 71.5q-224 0 -340.5 -108.5t-116.5 -305.5v-506q0 -195 118.5 -305.5t338.5 -110.5q135 0 226 36t142.5 102 t83.5 172q11 24 35 16l39 -14q25 -8 17 -33q-36 -120 -96.5 -197.5t-169.5 -122.5t-267 -47l-51 -139q24 8 65 8q84 0 132 -41.5t45 -111.5q-3 -93 -65.5 -142t-164.5 -49q-96 0 -170 45q-11 6 -14.5 12.5t-3.5 20.5l-2 27q0 7 4.5 10t11.5 -2q69 -53 166 -53q76 0 119 35.5 t43 99.5q0 100 -142 100q-41 0 -75 -12q-15 -3 -20 4t1 24l64 164q-242 12 -373 145.5t-131 360.5z" />
<glyph unicode="&#xc8;" horiz-adv-x="1167" d="M168 27v1400q0 15 6 21t21 6h835q15 0 21 -6t6 -21v-36q0 -25 -27 -25h-768v-586h680q25 0 25 -24v-37q0 -27 -25 -27h-680v-604h797q26 0 26 -25v-36q0 -27 -26 -27h-864q-15 0 -21 6t-6 21zM403 1792l19 23q16 18 45 4l354 -209q17 -11 2 -29l-14 -16q-11 -13 -33 -2 l-368 200q-26 9 -5 29z" />
<glyph unicode="&#xc9;" horiz-adv-x="1167" d="M168 27v1400q0 15 6 21t21 6h835q15 0 21 -6t6 -21v-36q0 -25 -27 -25h-768v-586h680q25 0 25 -24v-37q0 -27 -25 -27h-680v-604h797q26 0 26 -25v-36q0 -27 -26 -27h-864q-15 0 -21 6t-6 21zM408 1585q-16 19 2 29l346 219q31 14 47 -4l18 -23q18 -20 -4 -30l-362 -209 q-25 -8 -33 2z" />
<glyph unicode="&#xca;" horiz-adv-x="1167" d="M168 27v1400q0 15 6 21t21 6h835q15 0 21 -6t6 -21v-36q0 -25 -27 -25h-768v-586h680q25 0 25 -24v-37q0 -27 -25 -27h-680v-604h797q26 0 26 -25v-36q0 -27 -26 -27h-864q-15 0 -21 6t-6 21zM287 1585l272 230q16 16 23 19t26 3h13q12 0 16.5 -0.5t12 -5.5t18.5 -16 l272 -230q20 -20 -12 -20h-39q-27 0 -41 14l-236 195l-237 -195q-14 -14 -39 -14h-37q-32 0 -12 20z" />
<glyph unicode="&#xcb;" horiz-adv-x="1167" d="M168 27v1400q0 15 6 21t21 6h835q15 0 21 -6t6 -21v-36q0 -25 -27 -25h-768v-586h680q25 0 25 -24v-37q0 -27 -25 -27h-680v-604h797q26 0 26 -25v-36q0 -27 -26 -27h-864q-15 0 -21 6t-6 21zM365 1686v14q0 26 10.5 36.5t36.5 10.5h12q27 0 37 -10t10 -37v-14 q0 -26 -9.5 -36t-37.5 -10h-12q-26 0 -36.5 10t-10.5 36zM754 1686v14q0 26 10.5 36.5t38.5 10.5h12q26 0 36.5 -10.5t10.5 -36.5v-14q0 -26 -10.5 -36t-36.5 -10h-12q-28 0 -38.5 10t-10.5 36z" />
<glyph unicode="&#xcc;" horiz-adv-x="430" d="M6 1792l19 23q16 18 47 4l352 -209q18 -10 2 -29l-14 -16q-8 -13 -33 -2l-369 200q-22 7 -4 29zM170 27v1400q0 27 25 27h43q15 0 20.5 -6t5.5 -21v-1400q0 -15 -5.5 -21t-20.5 -6h-43q-25 0 -25 27z" />
<glyph unicode="&#xcd;" horiz-adv-x="430" d="M8 1585q-15 18 2 29l348 219q29 14 45 -4l21 -23q17 -20 -4 -30l-365 -209q-22 -8 -32 2zM168 27v1400q0 15 6 21t21 6h43q13 0 18.5 -6t5.5 -21v-1400q0 -15 -5.5 -21t-18.5 -6h-43q-15 0 -21 6t-6 21z" />
<glyph unicode="&#xce;" horiz-adv-x="430" d="M-117.5 1571.5q-3.5 6.5 4.5 13.5l275 230q16 16 23 19t26 3h10q12 0 16.5 -0.5t12.5 -5.5t20 -16l271 -230q9 -7 6 -13.5t-19 -6.5h-36q-29 0 -43 14l-234 195l-238 -195q-16 -14 -38 -14h-37q-16 0 -19.5 6.5zM168 27v1400q0 15 6 21t21 6h43q13 0 18.5 -6t5.5 -21 v-1400q0 -15 -5.5 -21t-18.5 -6h-43q-15 0 -21 6t-6 21z" />
<glyph unicode="&#xcf;" horiz-adv-x="430" d="M-35 1686v14q0 26 10.5 36.5t36.5 10.5h13q28 0 37.5 -10t9.5 -37v-14q0 -27 -9 -36.5t-38 -9.5h-13q-26 0 -36.5 10t-10.5 36zM168 27v1400q0 15 6 21t21 6h43q13 0 18.5 -6t5.5 -21v-1400q0 -15 -5.5 -21t-18.5 -6h-43q-15 0 -21 6t-6 21zM356 1686v14q0 27 10.5 37 t39.5 10h10q26 0 36.5 -10.5t10.5 -36.5v-14q0 -26 -10.5 -36t-36.5 -10h-10q-29 0 -39.5 10t-10.5 36z" />
<glyph unicode="&#xd0;" horiz-adv-x="1341" d="M2 719v26q0 12 4.5 16.5t16.5 4.5h163v661q0 27 27 27h420q283 0 438.5 -144t155.5 -397v-372q0 -253 -155.5 -397t-438.5 -144h-420q-27 0 -27 27v671h-163q-21 0 -21 21zM283 88h350q240 0 370 119t130 334v372q0 215 -130 334t-370 119h-350v-600h391q12 0 16 -4.5 t4 -16.5v-26q0 -12 -4 -16.5t-16 -4.5h-391v-610z" />
<glyph unicode="&#xd1;" horiz-adv-x="1409" d="M168 27v1400q0 15 6 21t21 6h41q19 0 28 -14l707 -1010q41 -59 104 -160.5t84 -132.5h4q0 39 -7 165.5t-7 203.5v924q0 13 6 18.5t21 5.5h41q13 0 18.5 -6t5.5 -21v-1400q0 -15 -5.5 -21t-18.5 -6h-43q-20 0 -29 16l-727 1037q-36 51 -91.5 145t-74.5 121h-4 q0 -33 6 -150t6 -188v-954q0 -15 -5.5 -21t-18.5 -6h-41q-15 0 -21 6t-6 21zM387 1599q0 93 39.5 143t114.5 50q41 0 77.5 -15t64.5 -37t55 -43.5t58 -36.5t64 -15q48 0 73 35.5t25 95.5q0 9 3.5 12.5t13.5 3.5h26q17 0 17 -16q0 -193 -154 -193q-39 0 -75.5 15t-64 37 t-54 44t-58.5 37t-65 15q-46 0 -72 -36t-26 -96q0 -16 -17 -16h-29q-16 0 -16 16z" />
<glyph unicode="&#xd2;" horiz-adv-x="1351" d="M125 477v500q0 238 143 372t410 134q264 0 406.5 -134t142.5 -372v-500q0 -238 -142.5 -372t-406.5 -134q-267 0 -410 134t-143 372zM219 477q0 -198 118.5 -308t340.5 -110q219 0 337 110t118 308v500q0 198 -118 308t-337 110q-222 0 -340.5 -110t-118.5 -308v-500z M467 1812l18 23q16 18 47 4l353 -209q10 -6 10.5 -12t-8.5 -16l-15 -17q-8 -13 -32 -2l-369 201q-22 7 -4 28z" />
<glyph unicode="&#xd3;" horiz-adv-x="1351" d="M125 477v500q0 238 143 372t410 134q264 0 406.5 -134t142.5 -372v-500q0 -238 -142.5 -372t-406.5 -134q-267 0 -410 134t-143 372zM219 477q0 -198 118.5 -308t340.5 -110q219 0 337 110t118 308v500q0 198 -118 308t-337 110q-222 0 -340.5 -110t-118.5 -308v-500z M471 1606q-15 17 2 28l346 219q31 14 47 -4l19 -22q20 -20 -4 -31l-363 -209q-23 -8 -33 2z" />
<glyph unicode="&#xd4;" horiz-adv-x="1351" d="M125 477v500q0 238 143 372t410 134q264 0 406.5 -134t142.5 -372v-500q0 -238 -142.5 -372t-406.5 -134q-267 0 -410 134t-143 372zM219 477q0 -198 118.5 -308t340.5 -110q219 0 337 110t118 308v500q0 198 -118 308t-337 110q-222 0 -340.5 -110t-118.5 -308v-500z M343.5 1591.5q-2.5 6.5 6.5 14.5l273 229q18 17 24.5 20t24.5 3h12q16 0 23.5 -3.5t25.5 -19.5l271 -229q9 -8 6 -14.5t-19 -6.5h-37q-29 0 -43 14l-233 195l-238 -195q-16 -14 -39 -14h-39q-16 0 -18.5 6.5z" />
<glyph unicode="&#xd5;" horiz-adv-x="1351" d="M125 477v500q0 238 143 372t410 134q264 0 406.5 -134t142.5 -372v-500q0 -238 -142.5 -372t-406.5 -134q-267 0 -410 134t-143 372zM219 477q0 -198 118.5 -308t340.5 -110q219 0 337 110t118 308v500q0 198 -118 308t-337 110q-222 0 -340.5 -110t-118.5 -308v-500z M358 1620q0 93 39.5 142.5t114.5 49.5q41 0 77.5 -15t64.5 -37t55 -43.5t58 -36.5t64 -15q48 0 73.5 35.5t25.5 95.5q0 9 3 12.5t13 3.5h27q16 0 16 -16q0 -192 -153 -192q-48 0 -93 23t-74.5 50.5t-70 50.5t-80.5 23q-46 0 -72 -35.5t-26 -95.5q0 -16 -17 -16h-28 q-17 0 -17 16z" />
<glyph unicode="&#xd6;" horiz-adv-x="1351" d="M125 477v500q0 238 143 372t410 134q264 0 406.5 -134t142.5 -372v-500q0 -238 -142.5 -372t-406.5 -134q-267 0 -410 134t-143 372zM219 477q0 -198 118.5 -308t340.5 -110q219 0 337 110t118 308v500q0 198 -118 308t-337 110q-222 0 -340.5 -110t-118.5 -308v-500z M428 1706v14q0 26 10.5 36.5t36.5 10.5h12q29 0 38.5 -10t9.5 -37v-14q0 -27 -9.5 -36t-38.5 -9h-12q-27 0 -37 9.5t-10 35.5zM819 1706v14q0 27 10 37t37 10h13q26 0 36.5 -10.5t10.5 -36.5v-14q0 -26 -10 -35.5t-37 -9.5h-13q-28 0 -37.5 9.5t-9.5 35.5z" />
<glyph unicode="&#xd7;" horiz-adv-x="1032" d="M137 307q-19 16 0 37l322 320l-322 323q-19 19 0 37l21 20q10 10 18 10t19 -10l321 -323l322 323q10 10 18 10t18 -10l21 -20q19 -18 0 -37l-322 -323l322 -322q19 -18 0 -37l-21 -20q-10 -11 -18 -11t-18 11l-322 321l-321 -319q-19 -19 -37 0z" />
<glyph unicode="&#xd8;" horiz-adv-x="1351" d="M125 477v500q0 238 143 372t410 134q243 0 379 -115l100 158q8 8 21 8h55q9 0 6 -10l-129 -201q117 -126 117 -346v-500q0 -238 -142.5 -372t-406.5 -134q-232 0 -367 101l-96 -150q-4 -7 -8 -8.5t-17 -1.5h-51q-13 0 -6 10l123 193q-131 131 -131 362zM219 477 q0 -171 96 -272l693 1085q-117 105 -330 105q-222 0 -340.5 -110t-118.5 -308v-500zM360 152q120 -93 318 -93q219 0 337 110t118 308v500q0 159 -80 254z" />
<glyph unicode="&#xd9;" d="M156 492v935q0 15 5.5 21t20.5 6h43q25 0 25 -27v-935q0 -204 113 -319.5t333 -115.5q219 0 332 116t113 319v935q0 15 5.5 21t18.5 6h45q25 0 25 -27v-935q0 -244 -137.5 -383.5t-401.5 -139.5q-265 0 -402.5 139.5t-137.5 383.5zM485 1792l19 23q16 18 47 4l352 -209 q18 -10 2 -29l-14 -16q-8 -13 -33 -2l-369 200q-22 7 -4 29z" />
<glyph unicode="&#xda;" d="M156 492v935q0 15 5.5 21t20.5 6h43q25 0 25 -27v-935q0 -204 113 -319.5t333 -115.5q219 0 332 116t113 319v935q0 15 5.5 21t18.5 6h45q25 0 25 -27v-935q0 -244 -137.5 -383.5t-401.5 -139.5q-265 0 -402.5 139.5t-137.5 383.5zM489 1585q-15 17 3 29l346 219 q31 14 47 -4l18 -23q20 -20 -4 -30l-362 -209q-23 -8 -33 2z" />
<glyph unicode="&#xdb;" d="M156 492v935q0 15 5.5 21t20.5 6h43q25 0 25 -27v-935q0 -204 113 -319.5t333 -115.5q219 0 332 116t113 319v935q0 15 5.5 21t18.5 6h45q25 0 25 -27v-935q0 -244 -137.5 -383.5t-401.5 -139.5q-265 0 -402.5 139.5t-137.5 383.5zM369 1585l272 230q18 17 24.5 19.5 t24.5 2.5h12q12 0 17 -0.5t13 -5.5t20 -16l270 -230q20 -20 -12 -20h-37q-29 0 -43 14l-234 195l-237 -195q-16 -14 -39 -14h-39q-32 0 -12 20z" />
<glyph unicode="&#xdc;" d="M156 492v935q0 15 5.5 21t20.5 6h43q25 0 25 -27v-935q0 -204 113 -319.5t333 -115.5q219 0 332 116t113 319v935q0 15 5.5 21t18.5 6h45q25 0 25 -27v-935q0 -244 -137.5 -383.5t-401.5 -139.5q-265 0 -402.5 139.5t-137.5 383.5zM446 1686v14q0 26 11 36.5t37 10.5h12 q28 0 37.5 -10t9.5 -37v-14q0 -27 -9 -36.5t-38 -9.5h-12q-27 0 -37.5 10t-10.5 36zM838 1686v14q0 27 10 37t37 10h12q26 0 36.5 -10.5t10.5 -36.5v-14q0 -26 -10.5 -36t-36.5 -10h-12q-27 0 -37 10t-10 36z" />
<glyph unicode="&#xdd;" horiz-adv-x="1267" d="M30.5 1446q3.5 8 16.5 8h55q23 0 32 -4t16 -18l485 -736l485 736q9 15 17.5 18.5t31.5 3.5h52q13 0 16.5 -8t-2.5 -19l-555 -829v-571q0 -27 -25 -27h-43q-15 0 -20.5 6t-5.5 21v573l-553 827q-6 11 -2.5 19zM430 1585q-16 19 2 29l346 219q31 14 47 -4l19 -23 q18 -20 -4 -30l-363 -209q-25 -8 -33 2z" />
<glyph unicode="&#xde;" horiz-adv-x="1261" d="M168 27v1400q0 15 6 21t21 6h43q13 0 18.5 -6t5.5 -21v-225h463q216 0 344.5 -125.5t128.5 -341.5q0 -215 -128 -339t-345 -124h-463v-245q0 -15 -5.5 -21t-18.5 -6h-43q-15 0 -21 6t-6 21zM262 360h455q175 0 279 101t104 274q0 174 -104 276.5t-279 102.5h-455v-754z " />
<glyph unicode="&#xdf;" horiz-adv-x="1120" d="M145 27v1054q0 209 107 332t305 123q211 0 315.5 -104.5t104.5 -303.5q0 -67 -18 -129t-65 -119.5t-118 -84.5v-2q122 -34 188 -130t66 -245q0 -207 -107 -312.5t-307 -105.5h-196q-25 0 -25 27v34q0 25 25 25h188q159 0 243.5 86t84.5 254q0 146 -81.5 231.5 t-227.5 85.5h-199q-25 0 -25 27v33q0 15 5.5 20.5t19.5 5.5h193q70 0 123.5 27.5t83.5 71.5t44.5 93t14.5 99q0 162 -82.5 246t-247.5 84q-157 0 -240.5 -98.5t-83.5 -270.5v-1054q0 -15 -5.5 -21t-20.5 -6h-35q-15 0 -21 6t-6 21z" />
<glyph unicode="&#xe0;" horiz-adv-x="1294" d="M25 25l567 1415q11 24 35 24h41q26 0 34 -24l568 -1415q11 -25 -21 -25h-37q-23 0 -32.5 5t-12.5 18l-182 452h-680l-180 -452q-5 -14 -14.5 -18.5t-32.5 -4.5h-35q-29 0 -18 25zM334 555h624l-290 727q-8 24 -21 88h-6q0 -41 -16 -88zM436 1792l21 23q14 19 45 4 l352 -209q18 -10 4 -29l-14 -16q-11 -13 -33 -2l-371 200q-22 8 -4 29z" />
<glyph unicode="&#xe1;" horiz-adv-x="1294" d="M25 25l567 1415q11 24 35 24h41q26 0 34 -24l568 -1415q11 -25 -21 -25h-37q-23 0 -32.5 5t-12.5 18l-182 452h-680l-180 -452q-5 -14 -14.5 -18.5t-32.5 -4.5h-35q-29 0 -18 25zM334 555h624l-290 727q-8 24 -21 88h-6q0 -41 -16 -88zM440 1585q-15 18 4 29l347 219 q29 14 45 -4l20 -23q17 -20 -4 -30l-365 -209q-22 -8 -32 2z" />
<glyph unicode="&#xe2;" horiz-adv-x="1294" d="M25 25l567 1415q11 24 35 24h41q26 0 34 -24l568 -1415q11 -25 -21 -25h-37q-23 0 -32.5 5t-12.5 18l-182 452h-680l-180 -452q-5 -14 -14.5 -18.5t-32.5 -4.5h-35q-29 0 -18 25zM314.5 1571.5q-3.5 6.5 4.5 13.5l275 230q16 16 23 19t26 3h10q18 0 24.5 -2.5t24.5 -19.5 l273 -230q16 -20 -14 -20h-37q-27 0 -41 14l-236 195l-237 -195q-16 -14 -39 -14h-37q-16 0 -19.5 6.5zM334 555h624l-290 727q-8 24 -21 88h-6q0 -41 -16 -88z" />
<glyph unicode="&#xe3;" horiz-adv-x="1294" d="M25 25l567 1415q11 24 35 24h41q26 0 34 -24l568 -1415q11 -25 -21 -25h-37q-23 0 -32.5 5t-12.5 18l-182 452h-680l-180 -452q-5 -14 -14.5 -18.5t-32.5 -4.5h-35q-29 0 -18 25zM328 1599q0 93 39 143t114 50q41 0 78.5 -15t65.5 -37t54.5 -43.5t57.5 -36.5t64 -15 q49 0 73.5 35t24.5 96q0 16 16 16h27q19 0 19 -16q0 -93 -38.5 -143t-115.5 -50q-40 0 -76.5 15t-64 37t-54.5 44t-59 37t-66 15q-46 0 -72 -36t-26 -96q0 -16 -16 -16h-29q-16 0 -16 16zM334 555h624l-290 727q-8 24 -21 88h-6q0 -41 -16 -88z" />
<glyph unicode="&#xe4;" horiz-adv-x="1294" d="M25 25l567 1415q11 24 35 24h41q26 0 34 -24l568 -1415q11 -25 -21 -25h-37q-23 0 -32.5 5t-12.5 18l-182 452h-680l-180 -452q-5 -14 -14.5 -18.5t-32.5 -4.5h-35q-29 0 -18 25zM334 555h624l-290 727q-8 24 -21 88h-6q0 -41 -16 -88zM397 1686v14q0 26 10.5 36.5 t36.5 10.5h13q28 0 37.5 -10t9.5 -37v-14q0 -27 -9 -36.5t-38 -9.5h-13q-26 0 -36.5 10t-10.5 36zM788 1686v14q0 27 10.5 37t39.5 10h10q26 0 36.5 -10.5t10.5 -36.5v-14q0 -26 -10.5 -36t-36.5 -10h-10q-29 0 -39.5 10t-10.5 36z" />
<glyph unicode="&#xe5;" horiz-adv-x="1294" d="M25 25l561 1398q-69 14 -107.5 63t-38.5 124q0 92 57 147t152 55q94 0 149.5 -55t55.5 -147q0 -76 -38 -125.5t-107 -63.5l561 -1396q11 -25 -21 -25h-37q-23 0 -32.5 5t-12.5 18l-182 452h-680l-180 -452q-5 -14 -14.5 -18.5t-32.5 -4.5h-35q-29 0 -18 25zM334 555h624 l-290 727q-8 24 -21 88h-6q0 -41 -16 -88zM498 1610q0 -67 40.5 -106.5t110.5 -39.5q67 0 107.5 40t40.5 106t-40.5 105.5t-107.5 39.5q-70 0 -110.5 -39.5t-40.5 -105.5z" />
<glyph unicode="&#xe6;" horiz-adv-x="1673" d="M-6 25l856 1405q9 15 15.5 19.5t19.5 4.5h653q25 0 25 -27v-36q0 -25 -25 -25h-577v-586h487q15 0 21 -5.5t6 -20.5v-37q0 -25 -27 -25h-487v-604h606q24 0 24 -25v-36q0 -15 -5.5 -21t-18.5 -6h-674q-25 0 -25 27v356h-553l-217 -360q-8 -13 -16.5 -18t-28.5 -5h-41 q-29 0 -18 25zM365 463h503v837z" />
<glyph unicode="&#xe7;" horiz-adv-x="1298" d="M125 477v502q0 237 141.5 370.5t409.5 133.5q231 0 357.5 -88t180.5 -269q4 -14 0 -21t-18 -13l-37 -13q-15 -3 -23 0.5t-12 16.5q-47 156 -150 227.5t-298 71.5q-224 0 -340.5 -108.5t-116.5 -305.5v-506q0 -195 118.5 -305.5t338.5 -110.5q135 0 226 36t142.5 102 t83.5 172q11 24 35 16l39 -14q25 -8 17 -33q-36 -120 -96.5 -197.5t-169.5 -122.5t-267 -47l-51 -139q24 8 65 8q84 0 132 -41.5t45 -111.5q-3 -93 -65.5 -142t-164.5 -49q-96 0 -170 45q-11 6 -14.5 12.5t-3.5 20.5l-2 27q0 7 4.5 10t11.5 -2q69 -53 166 -53q76 0 119 35.5 t43 99.5q0 100 -142 100q-41 0 -75 -12q-15 -3 -20 4t1 24l64 164q-242 12 -373 145.5t-131 360.5z" />
<glyph unicode="&#xe8;" horiz-adv-x="1167" d="M168 27v1400q0 15 6 21t21 6h835q15 0 21 -6t6 -21v-36q0 -25 -27 -25h-768v-586h680q25 0 25 -24v-37q0 -27 -25 -27h-680v-604h797q26 0 26 -25v-36q0 -27 -26 -27h-864q-15 0 -21 6t-6 21zM403 1792l19 23q16 18 45 4l354 -209q17 -11 2 -29l-14 -16q-11 -13 -33 -2 l-368 200q-26 9 -5 29z" />
<glyph unicode="&#xe9;" horiz-adv-x="1167" d="M168 27v1400q0 15 6 21t21 6h835q15 0 21 -6t6 -21v-36q0 -25 -27 -25h-768v-586h680q25 0 25 -24v-37q0 -27 -25 -27h-680v-604h797q26 0 26 -25v-36q0 -27 -26 -27h-864q-15 0 -21 6t-6 21zM408 1585q-16 19 2 29l346 219q31 14 47 -4l18 -23q18 -20 -4 -30l-362 -209 q-25 -8 -33 2z" />
<glyph unicode="&#xea;" horiz-adv-x="1167" d="M168 27v1400q0 15 6 21t21 6h835q15 0 21 -6t6 -21v-36q0 -25 -27 -25h-768v-586h680q25 0 25 -24v-37q0 -27 -25 -27h-680v-604h797q26 0 26 -25v-36q0 -27 -26 -27h-864q-15 0 -21 6t-6 21zM287 1585l272 230q16 16 23 19t26 3h13q12 0 16.5 -0.5t12 -5.5t18.5 -16 l272 -230q20 -20 -12 -20h-39q-27 0 -41 14l-236 195l-237 -195q-14 -14 -39 -14h-37q-32 0 -12 20z" />
<glyph unicode="&#xeb;" horiz-adv-x="1167" d="M168 27v1400q0 15 6 21t21 6h835q15 0 21 -6t6 -21v-36q0 -25 -27 -25h-768v-586h680q25 0 25 -24v-37q0 -27 -25 -27h-680v-604h797q26 0 26 -25v-36q0 -27 -26 -27h-864q-15 0 -21 6t-6 21zM365 1686v14q0 26 10.5 36.5t36.5 10.5h12q27 0 37 -10t10 -37v-14 q0 -26 -9.5 -36t-37.5 -10h-12q-26 0 -36.5 10t-10.5 36zM754 1686v14q0 26 10.5 36.5t38.5 10.5h12q26 0 36.5 -10.5t10.5 -36.5v-14q0 -26 -10.5 -36t-36.5 -10h-12q-28 0 -38.5 10t-10.5 36z" />
<glyph unicode="&#xec;" horiz-adv-x="430" d="M6 1792l19 23q16 18 47 4l352 -209q18 -10 2 -29l-14 -16q-8 -13 -33 -2l-369 200q-22 7 -4 29zM170 27v1400q0 27 25 27h43q15 0 20.5 -6t5.5 -21v-1400q0 -15 -5.5 -21t-20.5 -6h-43q-25 0 -25 27z" />
<glyph unicode="&#xed;" horiz-adv-x="430" d="M8 1585q-15 18 2 29l348 219q29 14 45 -4l21 -23q17 -20 -4 -30l-365 -209q-22 -8 -32 2zM168 27v1400q0 15 6 21t21 6h43q13 0 18.5 -6t5.5 -21v-1400q0 -15 -5.5 -21t-18.5 -6h-43q-15 0 -21 6t-6 21z" />
<glyph unicode="&#xee;" horiz-adv-x="430" d="M-117.5 1571.5q-3.5 6.5 4.5 13.5l275 230q16 16 23 19t26 3h10q12 0 16.5 -0.5t12.5 -5.5t20 -16l271 -230q9 -7 6 -13.5t-19 -6.5h-36q-29 0 -43 14l-234 195l-238 -195q-16 -14 -38 -14h-37q-16 0 -19.5 6.5zM168 27v1400q0 15 6 21t21 6h43q13 0 18.5 -6t5.5 -21 v-1400q0 -15 -5.5 -21t-18.5 -6h-43q-15 0 -21 6t-6 21z" />
<glyph unicode="&#xef;" horiz-adv-x="430" d="M-35 1686v14q0 26 10.5 36.5t36.5 10.5h13q28 0 37.5 -10t9.5 -37v-14q0 -27 -9 -36.5t-38 -9.5h-13q-26 0 -36.5 10t-10.5 36zM168 27v1400q0 15 6 21t21 6h43q13 0 18.5 -6t5.5 -21v-1400q0 -15 -5.5 -21t-18.5 -6h-43q-15 0 -21 6t-6 21zM356 1686v14q0 27 10.5 37 t39.5 10h10q26 0 36.5 -10.5t10.5 -36.5v-14q0 -26 -10.5 -36t-36.5 -10h-10q-29 0 -39.5 10t-10.5 36z" />
<glyph unicode="&#xf0;" horiz-adv-x="1341" d="M2 719v26q0 12 4.5 16.5t16.5 4.5h163v661q0 27 27 27h420q283 0 438.5 -144t155.5 -397v-372q0 -253 -155.5 -397t-438.5 -144h-420q-27 0 -27 27v671h-163q-21 0 -21 21zM283 88h350q240 0 370 119t130 334v372q0 215 -130 334t-370 119h-350v-600h391q12 0 16 -4.5 t4 -16.5v-26q0 -12 -4 -16.5t-16 -4.5h-391v-610z" />
<glyph unicode="&#xf1;" horiz-adv-x="1409" d="M168 27v1400q0 15 6 21t21 6h41q19 0 28 -14l707 -1010q41 -59 104 -160.5t84 -132.5h4q0 39 -7 165.5t-7 203.5v924q0 13 6 18.5t21 5.5h41q13 0 18.5 -6t5.5 -21v-1400q0 -15 -5.5 -21t-18.5 -6h-43q-20 0 -29 16l-727 1037q-36 51 -91.5 145t-74.5 121h-4 q0 -33 6 -150t6 -188v-954q0 -15 -5.5 -21t-18.5 -6h-41q-15 0 -21 6t-6 21zM387 1599q0 93 39.5 143t114.5 50q41 0 77.5 -15t64.5 -37t55 -43.5t58 -36.5t64 -15q48 0 73 35.5t25 95.5q0 9 3.5 12.5t13.5 3.5h26q17 0 17 -16q0 -193 -154 -193q-39 0 -75.5 15t-64 37 t-54 44t-58.5 37t-65 15q-46 0 -72 -36t-26 -96q0 -16 -17 -16h-29q-16 0 -16 16z" />
<glyph unicode="&#xf2;" horiz-adv-x="1351" d="M125 477v500q0 238 143 372t410 134q264 0 406.5 -134t142.5 -372v-500q0 -238 -142.5 -372t-406.5 -134q-267 0 -410 134t-143 372zM219 477q0 -198 118.5 -308t340.5 -110q219 0 337 110t118 308v500q0 198 -118 308t-337 110q-222 0 -340.5 -110t-118.5 -308v-500z M467 1812l18 23q16 18 47 4l353 -209q10 -6 10.5 -12t-8.5 -16l-15 -17q-8 -13 -32 -2l-369 201q-22 7 -4 28z" />
<glyph unicode="&#xf3;" horiz-adv-x="1351" d="M125 477v500q0 238 143 372t410 134q264 0 406.5 -134t142.5 -372v-500q0 -238 -142.5 -372t-406.5 -134q-267 0 -410 134t-143 372zM219 477q0 -198 118.5 -308t340.5 -110q219 0 337 110t118 308v500q0 198 -118 308t-337 110q-222 0 -340.5 -110t-118.5 -308v-500z M471 1606q-15 17 2 28l346 219q31 14 47 -4l19 -22q20 -20 -4 -31l-363 -209q-23 -8 -33 2z" />
<glyph unicode="&#xf4;" horiz-adv-x="1351" d="M125 477v500q0 238 143 372t410 134q264 0 406.5 -134t142.5 -372v-500q0 -238 -142.5 -372t-406.5 -134q-267 0 -410 134t-143 372zM219 477q0 -198 118.5 -308t340.5 -110q219 0 337 110t118 308v500q0 198 -118 308t-337 110q-222 0 -340.5 -110t-118.5 -308v-500z M343.5 1591.5q-2.5 6.5 6.5 14.5l273 229q18 17 24.5 20t24.5 3h12q16 0 23.5 -3.5t25.5 -19.5l271 -229q9 -8 6 -14.5t-19 -6.5h-37q-29 0 -43 14l-233 195l-238 -195q-16 -14 -39 -14h-39q-16 0 -18.5 6.5z" />
<glyph unicode="&#xf5;" horiz-adv-x="1351" d="M125 477v500q0 238 143 372t410 134q264 0 406.5 -134t142.5 -372v-500q0 -238 -142.5 -372t-406.5 -134q-267 0 -410 134t-143 372zM219 477q0 -198 118.5 -308t340.5 -110q219 0 337 110t118 308v500q0 198 -118 308t-337 110q-222 0 -340.5 -110t-118.5 -308v-500z M358 1620q0 93 39.5 142.5t114.5 49.5q41 0 77.5 -15t64.5 -37t55 -43.5t58 -36.5t64 -15q48 0 73.5 35.5t25.5 95.5q0 9 3 12.5t13 3.5h27q16 0 16 -16q0 -192 -153 -192q-48 0 -93 23t-74.5 50.5t-70 50.5t-80.5 23q-46 0 -72 -35.5t-26 -95.5q0 -16 -17 -16h-28 q-17 0 -17 16z" />
<glyph unicode="&#xf6;" horiz-adv-x="1351" d="M125 477v500q0 238 143 372t410 134q264 0 406.5 -134t142.5 -372v-500q0 -238 -142.5 -372t-406.5 -134q-267 0 -410 134t-143 372zM219 477q0 -198 118.5 -308t340.5 -110q219 0 337 110t118 308v500q0 198 -118 308t-337 110q-222 0 -340.5 -110t-118.5 -308v-500z M428 1706v14q0 26 10.5 36.5t36.5 10.5h12q29 0 38.5 -10t9.5 -37v-14q0 -27 -9.5 -36t-38.5 -9h-12q-27 0 -37 9.5t-10 35.5zM819 1706v14q0 27 10 37t37 10h13q26 0 36.5 -10.5t10.5 -36.5v-14q0 -26 -10 -35.5t-37 -9.5h-13q-28 0 -37.5 9.5t-9.5 35.5z" />
<glyph unicode="&#xf7;" horiz-adv-x="1210" d="M123 647v35q0 25 27 25h911q15 0 20.5 -5.5t5.5 -19.5v-35q0 -14 -5.5 -19t-20.5 -5h-911q-15 0 -21 5.5t-6 18.5zM545 250v12q0 32 11.5 43.5t43.5 11.5h10q32 0 44 -11.5t12 -43.5v-12q0 -31 -12 -43t-44 -12h-10q-32 0 -43.5 11.5t-11.5 43.5zM545 1071v12 q0 31 11.5 43.5t43.5 12.5h10q32 0 44 -12.5t12 -43.5v-12q0 -32 -12 -43.5t-44 -11.5h-10q-32 0 -43.5 11.5t-11.5 43.5z" />
<glyph unicode="&#xf8;" horiz-adv-x="1351" d="M125 477v500q0 238 143 372t410 134q243 0 379 -115l100 158q8 8 21 8h55q9 0 6 -10l-129 -201q117 -126 117 -346v-500q0 -238 -142.5 -372t-406.5 -134q-232 0 -367 101l-96 -150q-4 -7 -8 -8.5t-17 -1.5h-51q-13 0 -6 10l123 193q-131 131 -131 362zM219 477 q0 -171 96 -272l693 1085q-117 105 -330 105q-222 0 -340.5 -110t-118.5 -308v-500zM360 152q120 -93 318 -93q219 0 337 110t118 308v500q0 159 -80 254z" />
<glyph unicode="&#xf9;" d="M156 492v935q0 15 5.5 21t20.5 6h43q25 0 25 -27v-935q0 -204 113 -319.5t333 -115.5q219 0 332 116t113 319v935q0 15 5.5 21t18.5 6h45q25 0 25 -27v-935q0 -244 -137.5 -383.5t-401.5 -139.5q-265 0 -402.5 139.5t-137.5 383.5zM485 1792l19 23q16 18 47 4l352 -209 q18 -10 2 -29l-14 -16q-8 -13 -33 -2l-369 200q-22 7 -4 29z" />
<glyph unicode="&#xfa;" d="M156 492v935q0 15 5.5 21t20.5 6h43q25 0 25 -27v-935q0 -204 113 -319.5t333 -115.5q219 0 332 116t113 319v935q0 15 5.5 21t18.5 6h45q25 0 25 -27v-935q0 -244 -137.5 -383.5t-401.5 -139.5q-265 0 -402.5 139.5t-137.5 383.5zM489 1585q-15 17 3 29l346 219 q31 14 47 -4l18 -23q20 -20 -4 -30l-362 -209q-23 -8 -33 2z" />
<glyph unicode="&#xfb;" d="M156 492v935q0 15 5.5 21t20.5 6h43q25 0 25 -27v-935q0 -204 113 -319.5t333 -115.5q219 0 332 116t113 319v935q0 15 5.5 21t18.5 6h45q25 0 25 -27v-935q0 -244 -137.5 -383.5t-401.5 -139.5q-265 0 -402.5 139.5t-137.5 383.5zM369 1585l272 230q18 17 24.5 19.5 t24.5 2.5h12q12 0 17 -0.5t13 -5.5t20 -16l270 -230q20 -20 -12 -20h-37q-29 0 -43 14l-234 195l-237 -195q-16 -14 -39 -14h-39q-32 0 -12 20z" />
<glyph unicode="&#xfc;" d="M156 492v935q0 15 5.5 21t20.5 6h43q25 0 25 -27v-935q0 -204 113 -319.5t333 -115.5q219 0 332 116t113 319v935q0 15 5.5 21t18.5 6h45q25 0 25 -27v-935q0 -244 -137.5 -383.5t-401.5 -139.5q-265 0 -402.5 139.5t-137.5 383.5zM446 1686v14q0 26 11 36.5t37 10.5h12 q28 0 37.5 -10t9.5 -37v-14q0 -27 -9 -36.5t-38 -9.5h-12q-27 0 -37.5 10t-10.5 36zM838 1686v14q0 27 10 37t37 10h12q26 0 36.5 -10.5t10.5 -36.5v-14q0 -26 -10.5 -36t-36.5 -10h-12q-27 0 -37 10t-10 36z" />
<glyph unicode="&#xfd;" horiz-adv-x="1267" d="M30.5 1446q3.5 8 16.5 8h55q23 0 32 -4t16 -18l485 -736l485 736q9 15 17.5 18.5t31.5 3.5h52q13 0 16.5 -8t-2.5 -19l-555 -829v-571q0 -27 -25 -27h-43q-15 0 -20.5 6t-5.5 21v573l-553 827q-6 11 -2.5 19zM430 1585q-16 19 2 29l346 219q31 14 47 -4l19 -23 q18 -20 -4 -30l-363 -209q-25 -8 -33 2z" />
<glyph unicode="&#xfe;" horiz-adv-x="1261" d="M168 27v1400q0 15 6 21t21 6h43q13 0 18.5 -6t5.5 -21v-225h463q216 0 344.5 -125.5t128.5 -341.5q0 -215 -128 -339t-345 -124h-463v-245q0 -15 -5.5 -21t-18.5 -6h-43q-15 0 -21 6t-6 21zM262 360h455q175 0 279 101t104 274q0 174 -104 276.5t-279 102.5h-455v-754z " />
<glyph unicode="&#xff;" horiz-adv-x="1267" d="M30.5 1446q3.5 8 16.5 8h55q23 0 32 -4t16 -18l485 -736l485 736q9 15 17.5 18.5t31.5 3.5h52q13 0 16.5 -8t-2.5 -19l-555 -829v-571q0 -27 -25 -27h-43q-15 0 -20.5 6t-5.5 21v573l-553 827q-6 11 -2.5 19zM387 1686v14q0 26 10.5 36.5t36.5 10.5h12q28 0 38 -10.5 t10 -36.5v-14q0 -26 -10 -36t-38 -10h-12q-26 0 -36.5 10t-10.5 36zM778 1686v14q0 27 10 37t37 10h13q26 0 36.5 -10.5t10.5 -36.5v-14q0 -26 -10.5 -36t-36.5 -10h-13q-27 0 -37 10t-10 36z" />
<glyph unicode="&#x100;" horiz-adv-x="1294" d="M25 25l567 1415q11 24 35 24h41q26 0 34 -24l568 -1415q11 -25 -21 -25h-37q-23 0 -32.5 5t-12.5 18l-182 452h-680l-180 -452q-5 -14 -14.5 -18.5t-32.5 -4.5h-35q-29 0 -18 25zM334 555h624l-290 727q-8 24 -21 88h-6q0 -41 -16 -88zM381 1675v21q0 13 5 17.5t17 4.5 h488q12 0 17 -4.5t5 -17.5v-21q0 -24 -22 -24h-488q-13 0 -17.5 5t-4.5 19z" />
<glyph unicode="&#x101;" horiz-adv-x="1294" d="M25 25l567 1415q11 24 35 24h41q26 0 34 -24l568 -1415q11 -25 -21 -25h-37q-23 0 -32.5 5t-12.5 18l-182 452h-680l-180 -452q-5 -14 -14.5 -18.5t-32.5 -4.5h-35q-29 0 -18 25zM334 555h624l-290 727q-8 24 -21 88h-6q0 -41 -16 -88zM381 1675v21q0 13 5 17.5t17 4.5 h488q12 0 17 -4.5t5 -17.5v-21q0 -24 -22 -24h-488q-13 0 -17.5 5t-4.5 19z" />
<glyph unicode="&#x102;" horiz-adv-x="1294" d="M25 25l567 1415q11 24 35 24h41q26 0 34 -24l568 -1415q11 -25 -21 -25h-37q-23 0 -32.5 5t-12.5 18l-182 452h-680l-180 -452q-5 -14 -14.5 -18.5t-32.5 -4.5h-35q-29 0 -18 25zM334 555h624l-290 727q-8 24 -21 88h-6q0 -41 -16 -88zM340 1794q-6 17 12 23l33 12 q20 6 25 -10q26 -95 83 -140t154 -45t154.5 45t83.5 140q5 16 22 10l37 -12q16 -5 10 -23q-63 -229 -307 -229q-123 0 -198 56t-109 173z" />
<glyph unicode="&#x103;" horiz-adv-x="1294" d="M25 25l567 1415q11 24 35 24h41q26 0 34 -24l568 -1415q11 -25 -21 -25h-37q-23 0 -32.5 5t-12.5 18l-182 452h-680l-180 -452q-5 -14 -14.5 -18.5t-32.5 -4.5h-35q-29 0 -18 25zM334 555h624l-290 727q-8 24 -21 88h-6q0 -41 -16 -88zM340 1794q-6 17 12 23l33 12 q20 6 25 -10q26 -95 83 -140t154 -45t154.5 45t83.5 140q5 16 22 10l37 -12q16 -5 10 -23q-63 -229 -307 -229q-123 0 -198 56t-109 173z" />
<glyph unicode="&#x104;" horiz-adv-x="1292" d="M27 25l567 1415q8 24 35 24h39q26 0 34 -24l566 -1409q7 -20 -4 -31q-118 -93 -177.5 -200t-35.5 -171q10 -31 35.5 -48t54.5 -17q79 0 133 57q9 9 16 -4l10 -31q5 -11 -4 -20q-72 -72 -178 -72q-51 0 -90.5 25t-54.5 71q-29 84 30 199t193 221q-27 0 -33 25l-184 457 h-666l-188 -469q-5 -14 -14.5 -18.5t-32.5 -4.5h-33q-32 0 -18 25zM342 571h608l-166 426q-26 65 -70 191.5t-65 177.5h-6q-21 -50 -64 -176.5t-69 -192.5z" />
<glyph unicode="&#x105;" horiz-adv-x="1292" d="M27 25l567 1415q8 24 35 24h39q26 0 34 -24l566 -1409q7 -20 -4 -31q-118 -93 -177.5 -200t-35.5 -171q10 -31 35.5 -48t54.5 -17q79 0 133 57q9 9 16 -4l10 -31q5 -11 -4 -20q-72 -72 -178 -72q-51 0 -90.5 25t-54.5 71q-29 84 30 199t193 221q-27 0 -33 25l-184 457 h-666l-188 -469q-5 -14 -14.5 -18.5t-32.5 -4.5h-33q-32 0 -18 25zM342 571h608l-166 426q-26 65 -70 191.5t-65 177.5h-6q-21 -50 -64 -176.5t-69 -192.5z" />
<glyph unicode="&#x106;" horiz-adv-x="1298" d="M125 477v502q0 237 141.5 370.5t409.5 133.5q231 0 357.5 -88t180.5 -269q4 -14 0 -21t-18 -13l-37 -13q-15 -3 -23 0.5t-12 16.5q-47 156 -150 227.5t-298 71.5q-224 0 -340.5 -108.5t-116.5 -305.5v-506q0 -195 118.5 -305.5t338.5 -110.5q135 0 226 36t142.5 102 t83.5 172q11 24 35 16l39 -14q25 -8 17 -33q-36 -121 -99 -199.5t-174 -123t-270 -44.5q-264 0 -407.5 134.5t-143.5 371.5zM473 1585q-16 19 2 29l346 219q31 14 47 -4l19 -23q18 -20 -4 -30l-365 -209q-23 -8 -33 2z" />
<glyph unicode="&#x107;" horiz-adv-x="1298" d="M125 477v502q0 237 141.5 370.5t409.5 133.5q231 0 357.5 -88t180.5 -269q4 -14 0 -21t-18 -13l-37 -13q-15 -3 -23 0.5t-12 16.5q-47 156 -150 227.5t-298 71.5q-224 0 -340.5 -108.5t-116.5 -305.5v-506q0 -195 118.5 -305.5t338.5 -110.5q135 0 226 36t142.5 102 t83.5 172q11 24 35 16l39 -14q25 -8 17 -33q-36 -121 -99 -199.5t-174 -123t-270 -44.5q-264 0 -407.5 134.5t-143.5 371.5zM473 1585q-16 19 2 29l346 219q31 14 47 -4l19 -23q18 -20 -4 -30l-365 -209q-23 -8 -33 2z" />
<glyph unicode="&#x108;" horiz-adv-x="1298" d="M125 477v502q0 237 141.5 370.5t409.5 133.5q231 0 357.5 -88t180.5 -269q4 -14 0 -21t-18 -13l-37 -13q-15 -3 -23 0.5t-12 16.5q-47 156 -150 227.5t-298 71.5q-224 0 -340.5 -108.5t-116.5 -305.5v-506q0 -195 118.5 -305.5t338.5 -110.5q135 0 226 36t142.5 102 t83.5 172q11 24 35 16l39 -14q25 -8 17 -33q-36 -121 -99 -199.5t-174 -123t-270 -44.5q-264 0 -407.5 134.5t-143.5 371.5zM346 1571.5q-3 6.5 6 13.5l273 230q16 16 23 19t26 3h12q12 0 16.5 -0.5t12 -5.5t18.5 -16l273 -230q9 -7 6 -13.5t-19 -6.5h-39q-27 0 -41 14 l-235 195l-238 -195q-14 -14 -39 -14h-36q-16 0 -19 6.5z" />
<glyph unicode="&#x109;" horiz-adv-x="1298" d="M125 477v502q0 237 141.5 370.5t409.5 133.5q231 0 357.5 -88t180.5 -269q4 -14 0 -21t-18 -13l-37 -13q-15 -3 -23 0.5t-12 16.5q-47 156 -150 227.5t-298 71.5q-224 0 -340.5 -108.5t-116.5 -305.5v-506q0 -195 118.5 -305.5t338.5 -110.5q135 0 226 36t142.5 102 t83.5 172q11 24 35 16l39 -14q25 -8 17 -33q-36 -121 -99 -199.5t-174 -123t-270 -44.5q-264 0 -407.5 134.5t-143.5 371.5zM346 1571.5q-3 6.5 6 13.5l273 230q16 16 23 19t26 3h12q12 0 16.5 -0.5t12 -5.5t18.5 -16l273 -230q9 -7 6 -13.5t-19 -6.5h-39q-27 0 -41 14 l-235 195l-238 -195q-14 -14 -39 -14h-36q-16 0 -19 6.5z" />
<glyph unicode="&#x10a;" horiz-adv-x="1298" d="M125 477v502q0 237 141.5 370.5t409.5 133.5q231 0 357.5 -88t180.5 -269q4 -14 0 -21t-18 -13l-37 -13q-15 -3 -23 0.5t-12 16.5q-47 156 -150 227.5t-298 71.5q-224 0 -340.5 -108.5t-116.5 -305.5v-506q0 -195 118.5 -305.5t338.5 -110.5q135 0 226 36t142.5 102 t83.5 172q11 24 35 16l39 -14q25 -8 17 -33q-36 -121 -99 -199.5t-174 -123t-270 -44.5q-264 0 -407.5 134.5t-143.5 371.5zM625 1679v11q0 29 10.5 39t38.5 10h10q28 0 37.5 -10t9.5 -39v-11q0 -28 -9.5 -37.5t-37.5 -9.5h-10q-29 0 -39 9t-10 38z" />
<glyph unicode="&#x10b;" horiz-adv-x="1298" d="M125 477v502q0 237 141.5 370.5t409.5 133.5q231 0 357.5 -88t180.5 -269q4 -14 0 -21t-18 -13l-37 -13q-15 -3 -23 0.5t-12 16.5q-47 156 -150 227.5t-298 71.5q-224 0 -340.5 -108.5t-116.5 -305.5v-506q0 -195 118.5 -305.5t338.5 -110.5q135 0 226 36t142.5 102 t83.5 172q11 24 35 16l39 -14q25 -8 17 -33q-36 -121 -99 -199.5t-174 -123t-270 -44.5q-264 0 -407.5 134.5t-143.5 371.5zM625 1679v11q0 29 10.5 39t38.5 10h10q28 0 37.5 -10t9.5 -39v-11q0 -28 -9.5 -37.5t-37.5 -9.5h-10q-29 0 -39 9t-10 38z" />
<glyph unicode="&#x10c;" horiz-adv-x="1298" d="M125 477v502q0 237 141.5 370.5t409.5 133.5q231 0 357.5 -88t180.5 -269q4 -14 0 -21t-18 -13l-37 -13q-15 -3 -23 0.5t-12 16.5q-47 156 -150 227.5t-298 71.5q-224 0 -340.5 -108.5t-116.5 -305.5v-506q0 -195 118.5 -305.5t338.5 -110.5q135 0 226 36t142.5 102 t83.5 172q11 24 35 16l39 -14q25 -8 17 -33q-36 -121 -99 -199.5t-174 -123t-270 -44.5q-264 0 -407.5 134.5t-143.5 371.5zM344 1831q2 8 18 8h37q25 0 39 -14l238 -195l235 195q14 14 41 14h39q16 0 17.5 -7.5t-7.5 -14.5l-270 -228q-17 -17 -24.5 -20.5t-22.5 -3.5h-12 q-17 0 -24.5 3.5t-24.5 20.5l-273 228q-8 6 -6 14z" />
<glyph unicode="&#x10d;" horiz-adv-x="1298" d="M125 477v502q0 237 141.5 370.5t409.5 133.5q231 0 357.5 -88t180.5 -269q4 -14 0 -21t-18 -13l-37 -13q-15 -3 -23 0.5t-12 16.5q-47 156 -150 227.5t-298 71.5q-224 0 -340.5 -108.5t-116.5 -305.5v-506q0 -195 118.5 -305.5t338.5 -110.5q135 0 226 36t142.5 102 t83.5 172q11 24 35 16l39 -14q25 -8 17 -33q-36 -121 -99 -199.5t-174 -123t-270 -44.5q-264 0 -407.5 134.5t-143.5 371.5zM344 1831q2 8 18 8h37q25 0 39 -14l238 -195l235 195q14 14 41 14h39q16 0 17.5 -7.5t-7.5 -14.5l-270 -228q-17 -17 -24.5 -20.5t-22.5 -3.5h-12 q-17 0 -24.5 3.5t-24.5 20.5l-273 228q-8 6 -6 14z" />
<glyph unicode="&#x10e;" horiz-adv-x="1323" d="M168 27v1400q0 15 6 21t21 6h417q283 0 438.5 -144t155.5 -397v-372q0 -253 -155.5 -397t-438.5 -144h-417q-15 0 -21 6t-6 21zM262 88h352q238 0 368 119t130 334v372q0 215 -129 334t-369 119h-352v-1278zM297.5 1831q1.5 8 17.5 8h37q25 0 39 -14l238 -195l235 195 q14 14 41 14h39q16 0 17.5 -7.5t-7.5 -14.5l-270 -228q-17 -17 -24.5 -20.5t-22.5 -3.5h-12q-18 0 -25.5 3.5t-24.5 20.5l-270 228q-9 6 -7.5 14z" />
<glyph unicode="&#x10f;" horiz-adv-x="1323" d="M168 27v1400q0 15 6 21t21 6h417q283 0 438.5 -144t155.5 -397v-372q0 -253 -155.5 -397t-438.5 -144h-417q-15 0 -21 6t-6 21zM262 88h352q238 0 368 119t130 334v372q0 215 -129 334t-369 119h-352v-1278zM297.5 1831q1.5 8 17.5 8h37q25 0 39 -14l238 -195l235 195 q14 14 41 14h39q16 0 17.5 -7.5t-7.5 -14.5l-270 -228q-17 -17 -24.5 -20.5t-22.5 -3.5h-12q-18 0 -25.5 3.5t-24.5 20.5l-270 228q-9 6 -7.5 14z" />
<glyph unicode="&#x110;" horiz-adv-x="1341" d="M2 719v26q0 12 4.5 16.5t16.5 4.5h163v661q0 27 27 27h420q283 0 438.5 -144t155.5 -397v-372q0 -253 -155.5 -397t-438.5 -144h-420q-27 0 -27 27v671h-163q-21 0 -21 21zM283 88h350q240 0 370 119t130 334v372q0 215 -130 334t-370 119h-350v-600h391q12 0 16 -4.5 t4 -16.5v-26q0 -12 -4 -16.5t-16 -4.5h-391v-610z" />
<glyph unicode="&#x111;" horiz-adv-x="1341" d="M2 719v26q0 12 4.5 16.5t16.5 4.5h163v661q0 27 27 27h420q283 0 438.5 -144t155.5 -397v-372q0 -253 -155.5 -397t-438.5 -144h-420q-27 0 -27 27v671h-163q-21 0 -21 21zM283 88h350q240 0 370 119t130 334v372q0 215 -130 334t-370 119h-350v-600h391q12 0 16 -4.5 t4 -16.5v-26q0 -12 -4 -16.5t-16 -4.5h-391v-610z" />
<glyph unicode="&#x112;" horiz-adv-x="1167" d="M168 27v1400q0 15 6 21t21 6h835q15 0 21 -6t6 -21v-36q0 -25 -27 -25h-768v-586h680q25 0 25 -24v-37q0 -27 -25 -27h-680v-604h797q26 0 26 -25v-36q0 -27 -26 -27h-864q-15 0 -21 6t-6 21zM348 1675v21q0 13 5 17.5t18 4.5h485q14 0 18.5 -4.5t4.5 -17.5v-21 q0 -14 -5 -19t-18 -5h-485q-13 0 -18 5t-5 19z" />
<glyph unicode="&#x113;" horiz-adv-x="1167" d="M168 27v1400q0 15 6 21t21 6h835q15 0 21 -6t6 -21v-36q0 -25 -27 -25h-768v-586h680q25 0 25 -24v-37q0 -27 -25 -27h-680v-604h797q26 0 26 -25v-36q0 -27 -26 -27h-864q-15 0 -21 6t-6 21zM348 1675v21q0 13 5 17.5t18 4.5h485q14 0 18.5 -4.5t4.5 -17.5v-21 q0 -14 -5 -19t-18 -5h-485q-13 0 -18 5t-5 19z" />
<glyph unicode="&#x114;" horiz-adv-x="1167" d="M168 27v1400q0 15 6 21t21 6h835q15 0 21 -6t6 -21v-36q0 -25 -27 -25h-768v-586h680q25 0 25 -24v-37q0 -27 -25 -27h-680v-604h797q26 0 26 -25v-36q0 -27 -26 -27h-864q-15 0 -21 6t-6 21zM307 1794q-6 18 10 23l33 12q19 5 27 -10q25 -95 82 -140t153 -45 q97 0 155 45t83 140q7 15 22 10l37 -12q19 -6 13 -23q-34 -117 -109.5 -173t-200.5 -56q-123 0 -198 56t-107 173z" />
<glyph unicode="&#x115;" horiz-adv-x="1167" d="M168 27v1400q0 15 6 21t21 6h835q15 0 21 -6t6 -21v-36q0 -25 -27 -25h-768v-586h680q25 0 25 -24v-37q0 -27 -25 -27h-680v-604h797q26 0 26 -25v-36q0 -27 -26 -27h-864q-15 0 -21 6t-6 21zM307 1794q-6 18 10 23l33 12q19 5 27 -10q25 -95 82 -140t153 -45 q97 0 155 45t83 140q7 15 22 10l37 -12q19 -6 13 -23q-34 -117 -109.5 -173t-200.5 -56q-123 0 -198 56t-107 173z" />
<glyph unicode="&#x116;" horiz-adv-x="1167" d="M168 27v1400q0 15 6 21t21 6h835q15 0 21 -6t6 -21v-36q0 -25 -27 -25h-768v-586h680q25 0 25 -24v-37q0 -27 -25 -27h-680v-604h797q26 0 26 -25v-36q0 -27 -26 -27h-864q-15 0 -21 6t-6 21zM559 1679v11q0 29 10.5 39t38.5 10h10q28 0 38 -10t10 -39v-11 q0 -28 -10 -37.5t-38 -9.5h-10q-29 0 -39 9t-10 38z" />
<glyph unicode="&#x117;" horiz-adv-x="1167" d="M168 27v1400q0 15 6 21t21 6h835q15 0 21 -6t6 -21v-36q0 -25 -27 -25h-768v-586h680q25 0 25 -24v-37q0 -27 -25 -27h-680v-604h797q26 0 26 -25v-36q0 -27 -26 -27h-864q-15 0 -21 6t-6 21zM559 1679v11q0 29 10.5 39t38.5 10h10q28 0 38 -10t10 -39v-11 q0 -28 -10 -37.5t-38 -9.5h-10q-29 0 -39 9t-10 38z" />
<glyph unicode="&#x118;" horiz-adv-x="1167" d="M168 27v1400q0 15 6 21t21 6h835q15 0 21 -6t6 -21v-36q0 -25 -27 -25h-768v-586h680q14 0 19.5 -5.5t5.5 -20.5v-37q0 -25 -25 -25h-680v-604h797q26 0 26 -25v-36q0 -11 -8 -23q-134 -105 -196 -207t-37 -168q23 -61 94 -61q73 0 125 55q13 9 18 -4l11 -29 q5 -12 -5 -22q-77 -74 -178 -74q-50 0 -89.5 25t-53.5 73q-30 83 31 193.5t198 214.5h-800q-15 0 -21 6t-6 21z" />
<glyph unicode="&#x119;" horiz-adv-x="1167" d="M168 27v1400q0 15 6 21t21 6h835q15 0 21 -6t6 -21v-36q0 -25 -27 -25h-768v-586h680q14 0 19.5 -5.5t5.5 -20.5v-37q0 -25 -25 -25h-680v-604h797q26 0 26 -25v-36q0 -11 -8 -23q-134 -105 -196 -207t-37 -168q23 -61 94 -61q73 0 125 55q13 9 18 -4l11 -29 q5 -12 -5 -22q-77 -74 -178 -74q-50 0 -89.5 25t-53.5 73q-30 83 31 193.5t198 214.5h-800q-15 0 -21 6t-6 21z" />
<glyph unicode="&#x11a;" horiz-adv-x="1167" d="M168 27v1400q0 15 6 21t21 6h835q15 0 21 -6t6 -21v-36q0 -25 -27 -25h-768v-586h680q25 0 25 -24v-37q0 -27 -25 -27h-680v-604h797q26 0 26 -25v-36q0 -27 -26 -27h-864q-15 0 -21 6t-6 21zM279.5 1831q1.5 8 17.5 8h37q25 0 39 -14l237 -195l236 195q14 14 41 14h39 q16 0 17.5 -7.5t-7.5 -14.5l-270 -228q-17 -17 -24.5 -20.5t-23.5 -3.5h-12q-17 0 -24.5 3.5t-24.5 20.5l-270 228q-9 6 -7.5 14z" />
<glyph unicode="&#x11b;" horiz-adv-x="1167" d="M168 27v1400q0 15 6 21t21 6h835q15 0 21 -6t6 -21v-36q0 -25 -27 -25h-768v-586h680q25 0 25 -24v-37q0 -27 -25 -27h-680v-604h797q26 0 26 -25v-36q0 -27 -26 -27h-864q-15 0 -21 6t-6 21zM279.5 1831q1.5 8 17.5 8h37q25 0 39 -14l237 -195l236 195q14 14 41 14h39 q16 0 17.5 -7.5t-7.5 -14.5l-270 -228q-17 -17 -24.5 -20.5t-23.5 -3.5h-12q-17 0 -24.5 3.5t-24.5 20.5l-270 228q-9 6 -7.5 14z" />
<glyph unicode="&#x11c;" horiz-adv-x="1333" d="M125 479v500q0 237 141.5 370.5t409.5 133.5q231 0 357.5 -88t180.5 -269q4 -14 0 -21t-18 -13l-37 -13q-26 -9 -35 17q-47 156 -150 227.5t-298 71.5q-225 0 -341 -108.5t-116 -305.5v-502q0 -199 118.5 -309.5t340.5 -110.5q218 0 337.5 108.5t119.5 297.5v178h-439 q-26 0 -26 27v37q0 26 26 26h504q27 0 27 -28v-240q0 -228 -143 -361t-406 -133q-267 0 -410 135t-143 373zM342.5 1591.5q-3.5 6.5 5.5 14.5l275 229q17 17 24 20t25 3h10q16 0 23.5 -3.5t25.5 -19.5l270 -229q9 -8 6.5 -14.5t-18.5 -6.5h-37q-27 0 -43 14l-233 195 l-238 -195q-16 -14 -39 -14h-37q-16 0 -19.5 6.5z" />
<glyph unicode="&#x11d;" horiz-adv-x="1333" d="M125 479v500q0 237 141.5 370.5t409.5 133.5q231 0 357.5 -88t180.5 -269q4 -14 0 -21t-18 -13l-37 -13q-26 -9 -35 17q-47 156 -150 227.5t-298 71.5q-225 0 -341 -108.5t-116 -305.5v-502q0 -199 118.5 -309.5t340.5 -110.5q218 0 337.5 108.5t119.5 297.5v178h-439 q-26 0 -26 27v37q0 26 26 26h504q27 0 27 -28v-240q0 -228 -143 -361t-406 -133q-267 0 -410 135t-143 373zM342.5 1591.5q-3.5 6.5 5.5 14.5l275 229q17 17 24 20t25 3h10q16 0 23.5 -3.5t25.5 -19.5l270 -229q9 -8 6.5 -14.5t-18.5 -6.5h-37q-27 0 -43 14l-233 195 l-238 -195q-16 -14 -39 -14h-37q-16 0 -19.5 6.5z" />
<glyph unicode="&#x11e;" horiz-adv-x="1333" d="M125 479v500q0 237 141.5 370.5t409.5 133.5q231 0 357.5 -88t180.5 -269q4 -14 0 -21t-18 -13l-37 -13q-26 -9 -35 17q-47 156 -150 227.5t-298 71.5q-225 0 -341 -108.5t-116 -305.5v-502q0 -199 118.5 -309.5t340.5 -110.5q218 0 337.5 108.5t119.5 297.5v178h-439 q-26 0 -26 27v37q0 26 26 26h504q27 0 27 -28v-240q0 -228 -143 -361t-406 -133q-267 0 -410 135t-143 373zM369 1815q-5 16 12 22l33 12q19 5 24 -10q26 -95 83.5 -139.5t154.5 -44.5t154 44.5t83 139.5q5 16 23 10l37 -12q15 -6 10 -22q-63 -230 -307 -230t-307 230z" />
<glyph unicode="&#x11f;" horiz-adv-x="1333" d="M125 479v500q0 237 141.5 370.5t409.5 133.5q231 0 357.5 -88t180.5 -269q4 -14 0 -21t-18 -13l-37 -13q-26 -9 -35 17q-47 156 -150 227.5t-298 71.5q-225 0 -341 -108.5t-116 -305.5v-502q0 -199 118.5 -309.5t340.5 -110.5q218 0 337.5 108.5t119.5 297.5v178h-439 q-26 0 -26 27v37q0 26 26 26h504q27 0 27 -28v-240q0 -228 -143 -361t-406 -133q-267 0 -410 135t-143 373zM369 1815q-5 16 12 22l33 12q19 5 24 -10q26 -95 83.5 -139.5t154.5 -44.5t154 44.5t83 139.5q5 16 23 10l37 -12q15 -6 10 -22q-63 -230 -307 -230t-307 230z" />
<glyph unicode="&#x120;" horiz-adv-x="1333" d="M125 479v500q0 237 141.5 370.5t409.5 133.5q231 0 357.5 -88t180.5 -269q4 -14 0 -21t-18 -13l-37 -13q-26 -9 -35 17q-47 156 -150 227.5t-298 71.5q-225 0 -341 -108.5t-116 -305.5v-502q0 -199 118.5 -309.5t340.5 -110.5q218 0 337.5 108.5t119.5 297.5v178h-439 q-26 0 -26 27v37q0 26 26 26h504q27 0 27 -28v-240q0 -228 -143 -361t-406 -133q-267 0 -410 135t-143 373zM623 1700v10q0 29 10 39t39 10h8q28 0 38.5 -10t10.5 -39v-10q0 -27 -10.5 -37t-38.5 -10h-8q-30 0 -39.5 9t-9.5 38z" />
<glyph unicode="&#x121;" horiz-adv-x="1333" d="M125 479v500q0 237 141.5 370.5t409.5 133.5q231 0 357.5 -88t180.5 -269q4 -14 0 -21t-18 -13l-37 -13q-26 -9 -35 17q-47 156 -150 227.5t-298 71.5q-225 0 -341 -108.5t-116 -305.5v-502q0 -199 118.5 -309.5t340.5 -110.5q218 0 337.5 108.5t119.5 297.5v178h-439 q-26 0 -26 27v37q0 26 26 26h504q27 0 27 -28v-240q0 -228 -143 -361t-406 -133q-267 0 -410 135t-143 373zM623 1700v10q0 29 10 39t39 10h8q28 0 38.5 -10t10.5 -39v-10q0 -27 -10.5 -37t-38.5 -10h-8q-30 0 -39.5 9t-9.5 38z" />
<glyph unicode="&#x122;" horiz-adv-x="1333" d="M125 479v500q0 237 141.5 370.5t409.5 133.5q231 0 357.5 -88t180.5 -269q4 -14 0 -21t-18 -13l-37 -13q-26 -9 -35 17q-47 156 -150 227.5t-298 71.5q-225 0 -341 -108.5t-116 -305.5v-502q0 -199 118.5 -309.5t340.5 -110.5q218 0 337.5 108.5t119.5 297.5v178h-439 q-26 0 -26 27v37q0 26 26 26h504q27 0 27 -28v-240q0 -228 -143 -361t-406 -133q-267 0 -410 135t-143 373zM592 -483l80 299q3 15 9 19.5t21 4.5h39q32 0 23 -26l-98 -293q-5 -14 -10.5 -18.5t-18.5 -4.5h-29q-12 0 -15 4t-1 15z" />
<glyph unicode="&#x123;" horiz-adv-x="1333" d="M125 479v500q0 237 141.5 370.5t409.5 133.5q231 0 357.5 -88t180.5 -269q4 -14 0 -21t-18 -13l-37 -13q-26 -9 -35 17q-47 156 -150 227.5t-298 71.5q-225 0 -341 -108.5t-116 -305.5v-502q0 -199 118.5 -309.5t340.5 -110.5q218 0 337.5 108.5t119.5 297.5v178h-439 q-26 0 -26 27v37q0 26 26 26h504q27 0 27 -28v-240q0 -228 -143 -361t-406 -133q-267 0 -410 135t-143 373zM592 -483l80 299q3 15 9 19.5t21 4.5h39q32 0 23 -26l-98 -293q-5 -14 -10.5 -18.5t-18.5 -4.5h-29q-12 0 -15 4t-1 15z" />
<glyph unicode="&#x124;" d="M168 27v1400q0 15 6 21t21 6h43q13 0 18.5 -6t5.5 -21v-647h866v647q0 27 25 27h43q15 0 21 -6t6 -21v-1400q0 -15 -6 -21t-21 -6h-43q-25 0 -25 27v665h-866v-665q0 -15 -5.5 -21t-18.5 -6h-43q-15 0 -21 6t-6 21zM369 1585l272 230q16 16 23 19t26 3h12q12 0 16.5 -0.5 t12.5 -5.5t19 -16l272 -230q20 -20 -12 -20h-39q-27 0 -41 14l-236 195l-237 -195q-14 -14 -39 -14h-37q-32 0 -12 20z" />
<glyph unicode="&#x125;" d="M168 27v1400q0 15 6 21t21 6h43q13 0 18.5 -6t5.5 -21v-647h866v647q0 27 25 27h43q15 0 21 -6t6 -21v-1400q0 -15 -6 -21t-21 -6h-43q-25 0 -25 27v665h-866v-665q0 -15 -5.5 -21t-18.5 -6h-43q-15 0 -21 6t-6 21zM369 1585l272 230q16 16 23 19t26 3h12q12 0 16.5 -0.5 t12.5 -5.5t19 -16l272 -230q20 -20 -12 -20h-39q-27 0 -41 14l-236 195l-237 -195q-14 -14 -39 -14h-37q-32 0 -12 20z" />
<glyph unicode="&#x126;" horiz-adv-x="1402" d="M18 1155v21q0 20 19 20h137v231q0 15 6 21t21 6h43q13 0 18.5 -6t5.5 -21v-231h867v231q0 15 5.5 21t18.5 6h43q15 0 21 -6t6 -21v-231h139q11 0 14.5 -4t3.5 -16v-21q0 -13 -3.5 -17.5t-14.5 -4.5h-139v-1106q0 -15 -6 -21t-21 -6h-43q-13 0 -18.5 6t-5.5 21v665h-867 v-665q0 -15 -5.5 -21t-18.5 -6h-43q-15 0 -21 6t-6 21v1106h-137q-11 0 -15 4.5t-4 17.5zM268 780h867v353h-867v-353z" />
<glyph unicode="&#x127;" horiz-adv-x="1402" d="M18 1155v21q0 20 19 20h137v231q0 15 6 21t21 6h43q13 0 18.5 -6t5.5 -21v-231h867v231q0 15 5.5 21t18.5 6h43q15 0 21 -6t6 -21v-231h139q11 0 14.5 -4t3.5 -16v-21q0 -13 -3.5 -17.5t-14.5 -4.5h-139v-1106q0 -15 -6 -21t-21 -6h-43q-13 0 -18.5 6t-5.5 21v665h-867 v-665q0 -15 -5.5 -21t-18.5 -6h-43q-15 0 -21 6t-6 21v1106h-137q-11 0 -15 4.5t-4 17.5zM268 780h867v353h-867v-353z" />
<glyph unicode="&#x128;" horiz-adv-x="430" d="M-104 1599q0 93 39 143t114 50q41 0 78.5 -15t65.5 -37t54.5 -43.5t57.5 -36.5t64 -15q49 0 73.5 35t24.5 96q0 16 16 16h27q10 0 13 -3.5t3 -12.5q0 -193 -151 -193q-40 0 -76.5 15t-64.5 37t-55 44t-59 37t-65 15q-46 0 -72 -36t-26 -96q0 -16 -16 -16h-29 q-16 0 -16 16zM168 27v1400q0 15 6 21t21 6h43q13 0 18.5 -6t5.5 -21v-1400q0 -15 -5.5 -21t-18.5 -6h-43q-15 0 -21 6t-6 21z" />
<glyph unicode="&#x129;" horiz-adv-x="430" d="M-104 1599q0 93 39 143t114 50q41 0 78.5 -15t65.5 -37t54.5 -43.5t57.5 -36.5t64 -15q49 0 73.5 35t24.5 96q0 16 16 16h27q10 0 13 -3.5t3 -12.5q0 -193 -151 -193q-40 0 -76.5 15t-64.5 37t-55 44t-59 37t-65 15q-46 0 -72 -36t-26 -96q0 -16 -16 -16h-29 q-16 0 -16 16zM168 27v1400q0 15 6 21t21 6h43q13 0 18.5 -6t5.5 -21v-1400q0 -15 -5.5 -21t-18.5 -6h-43q-15 0 -21 6t-6 21z" />
<glyph unicode="&#x12a;" horiz-adv-x="430" d="M-51 1675v21q0 13 5 17.5t17 4.5h488q12 0 17 -4.5t5 -17.5v-21q0 -24 -22 -24h-488q-13 0 -17.5 5t-4.5 19zM168 27v1400q0 15 6 21t21 6h43q13 0 18.5 -6t5.5 -21v-1400q0 -15 -5.5 -21t-18.5 -6h-43q-15 0 -21 6t-6 21z" />
<glyph unicode="&#x12b;" horiz-adv-x="430" d="M-51 1675v21q0 13 5 17.5t17 4.5h488q12 0 17 -4.5t5 -17.5v-21q0 -24 -22 -24h-488q-13 0 -17.5 5t-4.5 19zM168 27v1400q0 15 6 21t21 6h43q13 0 18.5 -6t5.5 -21v-1400q0 -15 -5.5 -21t-18.5 -6h-43q-15 0 -21 6t-6 21z" />
<glyph unicode="&#x12c;" horiz-adv-x="430" d="M-92 1794q-6 17 12 23l33 12q19 5 24 -10q26 -95 83.5 -140t154.5 -45t154.5 45t83.5 140q5 16 22 10l37 -12q16 -6 10 -23q-63 -229 -307 -229t-307 229zM168 27v1400q0 15 6 21t21 6h43q13 0 18.5 -6t5.5 -21v-1400q0 -15 -5.5 -21t-18.5 -6h-43q-15 0 -21 6t-6 21z " />
<glyph unicode="&#x12d;" horiz-adv-x="430" d="M-92 1794q-6 17 12 23l33 12q19 5 24 -10q26 -95 83.5 -140t154.5 -45t154.5 45t83.5 140q5 16 22 10l37 -12q16 -6 10 -23q-63 -229 -307 -229t-307 229zM168 27v1400q0 15 6 21t21 6h43q13 0 18.5 -6t5.5 -21v-1400q0 -15 -5.5 -21t-18.5 -6h-43q-15 0 -21 6t-6 21z " />
<glyph unicode="&#x12e;" horiz-adv-x="430" d="M57 -410q-55 153 133 412q-22 0 -22 25v1400q0 15 6 21t21 6h43q13 0 18.5 -6t5.5 -21v-1400q0 -17 -6 -23q-172 -244 -121 -375q10 -32 35.5 -47.5t56.5 -15.5q74 0 129 55q14 11 17 -4l12 -29q5 -11 -4 -20q-74 -74 -178 -74q-119 0 -146 96z" />
<glyph unicode="&#x12f;" horiz-adv-x="430" d="M57 -410q-55 153 133 412q-22 0 -22 25v1400q0 15 6 21t21 6h43q13 0 18.5 -6t5.5 -21v-1400q0 -17 -6 -23q-172 -244 -121 -375q10 -32 35.5 -47.5t56.5 -15.5q74 0 129 55q14 11 17 -4l12 -29q5 -11 -4 -20q-74 -74 -178 -74q-119 0 -146 96z" />
<glyph unicode="&#x130;" horiz-adv-x="430" d="M162 1679v11q0 29 10 39t39 10h8q28 0 38.5 -10t10.5 -39v-11q0 -27 -10.5 -37t-38.5 -10h-8q-30 0 -39.5 9t-9.5 38zM168 27v1400q0 15 6 21t21 6h43q13 0 18.5 -6t5.5 -21v-1400q0 -15 -5.5 -21t-18.5 -6h-43q-15 0 -21 6t-6 21z" />
<glyph unicode="&#x131;" horiz-adv-x="430" d="M168 27v1400q0 15 6 21t21 6h43q13 0 18.5 -6t5.5 -21v-1400q0 -15 -5.5 -21t-18.5 -6h-43q-15 0 -21 6t-6 21z" />
<glyph unicode="&#x132;" horiz-adv-x="1597" d="M168 27v1400q0 15 6 21t21 6h43q13 0 18.5 -6t5.5 -21v-1400q0 -15 -5.5 -21t-18.5 -6h-43q-15 0 -21 6t-6 21zM481 373q-9 26 17 35l41 14q24 9 32 -16q32 -172 124 -259.5t261 -87.5q189 0 289.5 101.5t100.5 283.5v986q0 14 5 19t19 5h45q25 0 25 -24v-986 q0 -221 -126 -348t-358 -127q-396 0 -475 404z" />
<glyph unicode="&#x133;" horiz-adv-x="1597" d="M168 27v1400q0 15 6 21t21 6h43q13 0 18.5 -6t5.5 -21v-1400q0 -15 -5.5 -21t-18.5 -6h-43q-15 0 -21 6t-6 21zM481 373q-9 26 17 35l41 14q24 9 32 -16q32 -172 124 -259.5t261 -87.5q189 0 289.5 101.5t100.5 283.5v986q0 14 5 19t19 5h45q25 0 25 -24v-986 q0 -221 -126 -348t-358 -127q-396 0 -475 404z" />
<glyph unicode="&#x134;" horiz-adv-x="1161" d="M45 373q-9 27 16 35l41 14q25 9 33 -16q32 -172 124 -259.5t261 -87.5q188 0 288.5 101.5t100.5 283.5v986q0 24 25 24h45q25 0 25 -24v-986q0 -221 -126 -348t-358 -127q-396 0 -475 404zM629 1585l272 230q18 17 24.5 19.5t24.5 2.5h13q12 0 16.5 -0.5t12.5 -5.5 t20 -16l270 -230q20 -20 -12 -20h-37q-29 0 -43 14l-234 195l-237 -195q-16 -14 -41 -14h-37q-32 0 -12 20z" />
<glyph unicode="&#x135;" horiz-adv-x="1161" d="M45 373q-9 27 16 35l41 14q25 9 33 -16q32 -172 124 -259.5t261 -87.5q188 0 288.5 101.5t100.5 283.5v986q0 24 25 24h45q25 0 25 -24v-986q0 -221 -126 -348t-358 -127q-396 0 -475 404zM629 1585l272 230q18 17 24.5 19.5t24.5 2.5h13q12 0 16.5 -0.5t12.5 -5.5 t20 -16l270 -230q20 -20 -12 -20h-37q-29 0 -43 14l-234 195l-237 -195q-16 -14 -41 -14h-37q-32 0 -12 20z" />
<glyph unicode="&#x136;" horiz-adv-x="1228" d="M168 27v1400q0 15 6 21t21 6h43q13 0 18.5 -6t5.5 -21v-647h254q37 0 51 -2l484 654q11 14 20.5 18t32.5 4h47q14 0 17 -8t-5 -19l-497 -665q91 -21 152 -75t110 -150l258 -510q7 -11 3 -19t-18 -8h-41q-24 0 -33.5 4.5t-17.5 18.5l-239 477q-53 105 -123 149.5 t-195 44.5h-260v-667q0 -15 -5.5 -21t-18.5 -6h-43q-15 0 -21 6t-6 21zM551 -483l80 299q3 15 9.5 19.5t21.5 4.5h38q32 0 23 -26l-98 -293q-5 -23 -29 -23h-29q-12 0 -15 4t-1 15z" />
<glyph unicode="&#x137;" horiz-adv-x="1228" d="M168 27v1400q0 15 6 21t21 6h43q13 0 18.5 -6t5.5 -21v-647h254q37 0 51 -2l484 654q11 14 20.5 18t32.5 4h47q14 0 17 -8t-5 -19l-497 -665q91 -21 152 -75t110 -150l258 -510q7 -11 3 -19t-18 -8h-41q-24 0 -33.5 4.5t-17.5 18.5l-239 477q-53 105 -123 149.5 t-195 44.5h-260v-667q0 -15 -5.5 -21t-18.5 -6h-43q-15 0 -21 6t-6 21zM551 -483l80 299q3 15 9.5 19.5t21.5 4.5h38q32 0 23 -26l-98 -293q-5 -23 -29 -23h-29q-12 0 -15 4t-1 15z" />
<glyph unicode="&#x138;" horiz-adv-x="1228" d="M168 27v1400q0 15 6 21t21 6h43q13 0 18.5 -6t5.5 -21v-647h254q37 0 51 -2l484 654q11 14 20.5 18t32.5 4h47q14 0 17 -8t-5 -19l-497 -665q91 -21 152 -75t110 -150l258 -510q7 -11 3 -19t-18 -8h-41q-24 0 -33.5 4.5t-17.5 18.5l-239 477q-53 105 -123 149.5 t-195 44.5h-260v-667q0 -15 -5.5 -21t-18.5 -6h-43q-15 0 -21 6t-6 21z" />
<glyph unicode="&#x139;" horiz-adv-x="1060" d="M10 1585q-15 18 2 29l346 219q32 14 48 -4l18 -23q20 -20 -4 -30l-363 -209q-22 -8 -32 2zM168 27v1400q0 15 6 21t21 6h43q13 0 18.5 -6t5.5 -21v-1339h746q24 0 24 -25v-36q0 -15 -5.5 -21t-18.5 -6h-813q-15 0 -21 6t-6 21z" />
<glyph unicode="&#x13a;" horiz-adv-x="1060" d="M10 1585q-15 18 2 29l346 219q32 14 48 -4l18 -23q20 -20 -4 -30l-363 -209q-22 -8 -32 2zM168 27v1400q0 15 6 21t21 6h43q13 0 18.5 -6t5.5 -21v-1339h746q24 0 24 -25v-36q0 -15 -5.5 -21t-18.5 -6h-813q-15 0 -21 6t-6 21z" />
<glyph unicode="&#x13b;" horiz-adv-x="1060" d="M168 27v1400q0 15 6 21t21 6h43q13 0 18.5 -6t5.5 -21v-1339h746q24 0 24 -25v-36q0 -15 -5.5 -21t-18.5 -6h-813q-15 0 -21 6t-6 21zM481 -483l82 299q1 15 7.5 19.5t21.5 4.5h39q31 0 22 -26l-98 -293q-5 -23 -29 -23h-26q-22 0 -19 19z" />
<glyph unicode="&#x13c;" horiz-adv-x="1060" d="M168 27v1400q0 15 6 21t21 6h43q13 0 18.5 -6t5.5 -21v-1339h746q24 0 24 -25v-36q0 -15 -5.5 -21t-18.5 -6h-813q-15 0 -21 6t-6 21zM481 -483l82 299q1 15 7.5 19.5t21.5 4.5h39q31 0 22 -26l-98 -293q-5 -23 -29 -23h-26q-22 0 -19 19z" />
<glyph unicode="&#x13d;" horiz-adv-x="1060" d="M168 27v1400q0 15 6 21t21 6h43q13 0 18.5 -6t5.5 -21v-1339h746q24 0 24 -25v-36q0 -15 -5.5 -21t-18.5 -6h-813q-15 0 -21 6t-6 21zM668 1020l82 410q1 15 7 19.5t21 4.5h37q32 0 23 -27l-103 -403q-3 -14 -9 -19.5t-19 -5.5h-23q-12 0 -15.5 4.5t-0.5 16.5z" />
<glyph unicode="&#x13e;" horiz-adv-x="1060" d="M168 27v1400q0 15 6 21t21 6h43q13 0 18.5 -6t5.5 -21v-1339h746q24 0 24 -25v-36q0 -15 -5.5 -21t-18.5 -6h-813q-15 0 -21 6t-6 21zM668 1020l82 410q1 15 7 19.5t21 4.5h37q32 0 23 -27l-103 -403q-3 -14 -9 -19.5t-19 -5.5h-23q-12 0 -15.5 4.5t-0.5 16.5z" />
<glyph unicode="&#x13f;" horiz-adv-x="1060" d="M168 27v1400q0 15 6 21t21 6h43q13 0 18.5 -6t5.5 -21v-1339h746q24 0 24 -25v-36q0 -15 -5.5 -21t-18.5 -6h-813q-15 0 -21 6t-6 21zM631 719v10q0 32 12 43.5t45 11.5h10q31 0 43.5 -11.5t12.5 -43.5v-10q0 -32 -12.5 -44.5t-43.5 -12.5h-10q-33 0 -45 12t-12 45z" />
<glyph unicode="&#x140;" horiz-adv-x="1060" d="M168 27v1400q0 15 6 21t21 6h43q13 0 18.5 -6t5.5 -21v-1339h746q24 0 24 -25v-36q0 -15 -5.5 -21t-18.5 -6h-813q-15 0 -21 6t-6 21zM631 719v10q0 32 12 43.5t45 11.5h10q31 0 43.5 -11.5t12.5 -43.5v-10q0 -32 -12.5 -44.5t-43.5 -12.5h-10q-33 0 -45 12t-12 45z" />
<glyph unicode="&#x141;" horiz-adv-x="1114" d="M-4 559q-13 19 6 27l219 106v735q0 27 25 27h43q15 0 20.5 -6t5.5 -21v-692l482 234q21 10 30 -8l15 -29q9 -18 -11 -27l-516 -250v-567h746q24 0 24 -25v-36q0 -15 -5.5 -21t-18.5 -6h-815q-25 0 -25 27v583l-184 -90q-20 -9 -27 10z" />
<glyph unicode="&#x142;" horiz-adv-x="1114" d="M-4 559q-13 19 6 27l219 106v735q0 27 25 27h43q15 0 20.5 -6t5.5 -21v-692l482 234q21 10 30 -8l15 -29q9 -18 -11 -27l-516 -250v-567h746q24 0 24 -25v-36q0 -15 -5.5 -21t-18.5 -6h-815q-25 0 -25 27v583l-184 -90q-20 -9 -27 10z" />
<glyph unicode="&#x143;" horiz-adv-x="1409" d="M168 27v1400q0 15 6 21t21 6h41q19 0 28 -14l707 -1010q41 -59 104 -160.5t84 -132.5h4q0 39 -7 165.5t-7 203.5v924q0 13 6 18.5t21 5.5h41q13 0 18.5 -6t5.5 -21v-1400q0 -15 -5.5 -21t-18.5 -6h-43q-20 0 -29 16l-727 1037q-36 51 -91.5 145t-74.5 121h-4 q0 -33 6 -150t6 -188v-954q0 -15 -5.5 -21t-18.5 -6h-41q-15 0 -21 6t-6 21zM500 1585q-15 18 2 29l346 219q31 14 47 -4l18 -23q20 -20 -4 -30l-362 -209q-23 -8 -33 2z" />
<glyph unicode="&#x144;" horiz-adv-x="1409" d="M168 27v1400q0 15 6 21t21 6h41q19 0 28 -14l707 -1010q41 -59 104 -160.5t84 -132.5h4q0 39 -7 165.5t-7 203.5v924q0 13 6 18.5t21 5.5h41q13 0 18.5 -6t5.5 -21v-1400q0 -15 -5.5 -21t-18.5 -6h-43q-20 0 -29 16l-727 1037q-36 51 -91.5 145t-74.5 121h-4 q0 -33 6 -150t6 -188v-954q0 -15 -5.5 -21t-18.5 -6h-41q-15 0 -21 6t-6 21zM500 1585q-15 18 2 29l346 219q31 14 47 -4l18 -23q20 -20 -4 -30l-362 -209q-23 -8 -33 2z" />
<glyph unicode="&#x145;" horiz-adv-x="1409" d="M168 27v1400q0 15 6 21t21 6h41q19 0 28 -14l707 -1010q41 -59 104 -160.5t84 -132.5h4q0 39 -7 165.5t-7 203.5v924q0 13 6 18.5t21 5.5h41q13 0 18.5 -6t5.5 -21v-1400q0 -15 -5.5 -21t-18.5 -6h-43q-20 0 -29 16l-727 1037q-36 51 -91.5 145t-74.5 121h-4 q0 -33 6 -150t6 -188v-954q0 -15 -5.5 -21t-18.5 -6h-41q-15 0 -21 6t-6 21zM592 -483l80 299q3 15 9 19.5t21 4.5h37q32 0 23 -26l-96 -293q-8 -23 -29 -23h-29q-12 0 -15 4t-1 15z" />
<glyph unicode="&#x146;" horiz-adv-x="1409" d="M168 27v1400q0 15 6 21t21 6h41q19 0 28 -14l707 -1010q41 -59 104 -160.5t84 -132.5h4q0 39 -7 165.5t-7 203.5v924q0 13 6 18.5t21 5.5h41q13 0 18.5 -6t5.5 -21v-1400q0 -15 -5.5 -21t-18.5 -6h-43q-20 0 -29 16l-727 1037q-36 51 -91.5 145t-74.5 121h-4 q0 -33 6 -150t6 -188v-954q0 -15 -5.5 -21t-18.5 -6h-41q-15 0 -21 6t-6 21zM592 -483l80 299q3 15 9 19.5t21 4.5h37q32 0 23 -26l-96 -293q-8 -23 -29 -23h-29q-12 0 -15 4t-1 15z" />
<glyph unicode="&#x147;" horiz-adv-x="1409" d="M168 27v1400q0 15 6 21t21 6h41q19 0 28 -14l707 -1010q41 -59 104 -160.5t84 -132.5h4q0 39 -7 165.5t-7 203.5v924q0 13 6 18.5t21 5.5h41q13 0 18.5 -6t5.5 -21v-1400q0 -15 -5.5 -21t-18.5 -6h-43q-20 0 -29 16l-727 1037q-36 51 -91.5 145t-74.5 121h-4 q0 -33 6 -150t6 -188v-954q0 -15 -5.5 -21t-18.5 -6h-41q-15 0 -21 6t-6 21zM371.5 1831q1.5 8 17.5 8h39q23 0 39 -14l238 -195l233 195q14 14 43 14h37q30 0 12 -22l-270 -228q-18 -17 -26 -20.5t-23 -3.5h-13q-17 0 -23.5 3t-23.5 21l-272 228q-9 6 -7.5 14z" />
<glyph unicode="&#x148;" horiz-adv-x="1409" d="M168 27v1400q0 15 6 21t21 6h41q19 0 28 -14l707 -1010q41 -59 104 -160.5t84 -132.5h4q0 39 -7 165.5t-7 203.5v924q0 13 6 18.5t21 5.5h41q13 0 18.5 -6t5.5 -21v-1400q0 -15 -5.5 -21t-18.5 -6h-43q-20 0 -29 16l-727 1037q-36 51 -91.5 145t-74.5 121h-4 q0 -33 6 -150t6 -188v-954q0 -15 -5.5 -21t-18.5 -6h-41q-15 0 -21 6t-6 21zM371.5 1831q1.5 8 17.5 8h39q23 0 39 -14l238 -195l233 195q14 14 43 14h37q30 0 12 -22l-270 -228q-18 -17 -26 -20.5t-23 -3.5h-13q-17 0 -23.5 3t-23.5 21l-272 228q-9 6 -7.5 14z" />
<glyph unicode="&#x149;" horiz-adv-x="1409" d="M168 27v1400q0 15 6 21t21 6h41q19 0 28 -14l707 -1010q41 -59 104 -160.5t84 -132.5h4q0 39 -7 165.5t-7 203.5v924q0 13 6 18.5t21 5.5h41q13 0 18.5 -6t5.5 -21v-1400q0 -15 -5.5 -21t-18.5 -6h-43q-20 0 -29 16l-727 1037q-36 51 -91.5 145t-74.5 121h-4 q0 -33 6 -150t6 -188v-954q0 -15 -5.5 -21t-18.5 -6h-41q-15 0 -21 6t-6 21z" />
<glyph unicode="&#x14a;" horiz-adv-x="1409" d="M168 27v1400q0 15 6 21t21 6h41q19 0 28 -14l707 -1010q41 -59 104 -160.5t84 -132.5h4q0 39 -7 165.5t-7 203.5v924q0 13 6 18.5t21 5.5h41q13 0 18.5 -6t5.5 -21v-1454q0 -211 -118.5 -327.5t-336.5 -116.5q-13 0 -17.5 5.5t-4.5 19.5v34q0 14 4.5 18.5t17.5 4.5 q175 0 269 97t94 269v33l-731 1043q-36 51 -91.5 145t-74.5 121h-4q0 -28 6 -132t6 -169v-991q0 -15 -5.5 -21t-18.5 -6h-41q-15 0 -21 6t-6 21z" />
<glyph unicode="&#x14b;" horiz-adv-x="1409" d="M168 27v1400q0 15 6 21t21 6h41q19 0 28 -14l707 -1010q41 -59 104 -160.5t84 -132.5h4q0 39 -7 165.5t-7 203.5v924q0 13 6 18.5t21 5.5h41q13 0 18.5 -6t5.5 -21v-1454q0 -211 -118.5 -327.5t-336.5 -116.5q-13 0 -17.5 5.5t-4.5 19.5v34q0 14 4.5 18.5t17.5 4.5 q175 0 269 97t94 269v33l-731 1043q-36 51 -91.5 145t-74.5 121h-4q0 -28 6 -132t6 -169v-991q0 -15 -5.5 -21t-18.5 -6h-41q-15 0 -21 6t-6 21z" />
<glyph unicode="&#x14c;" horiz-adv-x="1351" d="M125 477v500q0 238 143 372t410 134q264 0 406.5 -134t142.5 -372v-500q0 -238 -142.5 -372t-406.5 -134q-267 0 -410 134t-143 372zM219 477q0 -198 118.5 -308t340.5 -110q219 0 337 110t118 308v500q0 198 -118 308t-337 110q-222 0 -340.5 -110t-118.5 -308v-500z M412 1696v20q0 13 5 18t17 5h486q14 0 19 -5t5 -18v-20q0 -25 -24 -25h-486q-13 0 -17.5 5.5t-4.5 19.5z" />
<glyph unicode="&#x14d;" horiz-adv-x="1351" d="M125 477v500q0 238 143 372t410 134q264 0 406.5 -134t142.5 -372v-500q0 -238 -142.5 -372t-406.5 -134q-267 0 -410 134t-143 372zM219 477q0 -198 118.5 -308t340.5 -110q219 0 337 110t118 308v500q0 198 -118 308t-337 110q-222 0 -340.5 -110t-118.5 -308v-500z M412 1696v20q0 13 5 18t17 5h486q14 0 19 -5t5 -18v-20q0 -25 -24 -25h-486q-13 0 -17.5 5.5t-4.5 19.5z" />
<glyph unicode="&#x14e;" horiz-adv-x="1351" d="M125 477v500q0 238 143 372t410 134q264 0 406.5 -134t142.5 -372v-500q0 -238 -142.5 -372t-406.5 -134q-267 0 -410 134t-143 372zM219 477q0 -198 118.5 -308t340.5 -110q219 0 337 110t118 308v500q0 198 -118 308t-337 110q-222 0 -340.5 -110t-118.5 -308v-500z M371 1815q-5 16 10 22l35 12q17 5 24 -10q25 -95 83 -139.5t155 -44.5q96 0 153.5 44.5t83.5 139.5q5 16 23 10l35 -12q17 -6 12 -22q-34 -117 -109 -173.5t-198 -56.5q-244 0 -307 230z" />
<glyph unicode="&#x14f;" horiz-adv-x="1351" d="M125 477v500q0 238 143 372t410 134q264 0 406.5 -134t142.5 -372v-500q0 -238 -142.5 -372t-406.5 -134q-267 0 -410 134t-143 372zM219 477q0 -198 118.5 -308t340.5 -110q219 0 337 110t118 308v500q0 198 -118 308t-337 110q-222 0 -340.5 -110t-118.5 -308v-500z M371 1815q-5 16 10 22l35 12q17 5 24 -10q25 -95 83 -139.5t155 -44.5q96 0 153.5 44.5t83.5 139.5q5 16 23 10l35 -12q17 -6 12 -22q-34 -117 -109 -173.5t-198 -56.5q-244 0 -307 230z" />
<glyph unicode="&#x150;" horiz-adv-x="1351" d="M125 477v500q0 238 143 372t410 134q264 0 406.5 -134t142.5 -372v-500q0 -238 -142.5 -372t-406.5 -134q-267 0 -410 134t-143 372zM219 477q0 -198 118.5 -308t340.5 -110q219 0 337 110t118 308v500q0 198 -118 308t-337 110q-222 0 -340.5 -110t-118.5 -308v-500z M401 1614l207 231q18 22 41 17l31 -9q27 -8 10 -28l-231 -232q-16 -16 -31 -10l-18 6q-22 5 -9 25zM756 1612l211 233q18 22 41 17l32 -9q28 -9 9 -28l-236 -234q-18 -18 -31 -10l-18 6q-23 6 -8 25z" />
<glyph unicode="&#x151;" horiz-adv-x="1351" d="M125 477v500q0 238 143 372t410 134q264 0 406.5 -134t142.5 -372v-500q0 -238 -142.5 -372t-406.5 -134q-267 0 -410 134t-143 372zM219 477q0 -198 118.5 -308t340.5 -110q219 0 337 110t118 308v500q0 198 -118 308t-337 110q-222 0 -340.5 -110t-118.5 -308v-500z M401 1614l207 231q18 22 41 17l31 -9q27 -8 10 -28l-231 -232q-16 -16 -31 -10l-18 6q-22 5 -9 25zM756 1612l211 233q18 22 41 17l32 -9q28 -9 9 -28l-236 -234q-18 -18 -31 -10l-18 6q-23 6 -8 25z" />
<glyph unicode="&#x152;" horiz-adv-x="1716" d="M125 477v500q0 238 143 373t410 135q111 0 225 -31h676q27 0 27 -27v-36q0 -25 -27 -25h-608v-586h518q15 0 21 -5.5t6 -20.5v-37q0 -25 -27 -25h-518v-604h637q24 0 24 -25v-36q0 -15 -5.5 -21t-18.5 -6h-705q-114 -31 -225 -31q-267 0 -410 135t-143 373zM219 477 q0 -199 118.5 -309.5t340.5 -110.5q112 0 196 29v1282q-101 29 -196 29q-222 0 -340.5 -110.5t-118.5 -309.5v-500z" />
<glyph unicode="&#x153;" horiz-adv-x="1716" d="M125 477v500q0 238 143 373t410 135q111 0 225 -31h676q27 0 27 -27v-36q0 -25 -27 -25h-608v-586h518q15 0 21 -5.5t6 -20.5v-37q0 -25 -27 -25h-518v-604h637q24 0 24 -25v-36q0 -15 -5.5 -21t-18.5 -6h-705q-114 -31 -225 -31q-267 0 -410 135t-143 373zM219 477 q0 -199 118.5 -309.5t340.5 -110.5q112 0 196 29v1282q-101 29 -196 29q-222 0 -340.5 -110.5t-118.5 -309.5v-500z" />
<glyph unicode="&#x154;" horiz-adv-x="1310" d="M168 27v1400q0 15 6 21t21 6h587q195 0 305.5 -108t110.5 -302q0 -175 -96 -278t-264 -117q57 -24 95 -63t73 -105l229 -454q8 -11 4.5 -19t-18.5 -8h-39q-25 0 -35.5 4.5t-16.5 18.5l-212 421q-53 105 -123 150t-195 45h-338v-612q0 -15 -5.5 -21t-18.5 -6h-43 q-15 0 -21 6t-6 21zM262 727h510q155 0 241.5 82.5t86.5 234.5q0 154 -85.5 238t-242.5 84h-510v-639zM432 1585q-15 18 4 29l346 219q29 14 45 -4l21 -23q17 -20 -4 -30l-365 -209q-23 -8 -33 2z" />
<glyph unicode="&#x155;" horiz-adv-x="1310" d="M168 27v1400q0 15 6 21t21 6h587q195 0 305.5 -108t110.5 -302q0 -175 -96 -278t-264 -117q57 -24 95 -63t73 -105l229 -454q8 -11 4.5 -19t-18.5 -8h-39q-25 0 -35.5 4.5t-16.5 18.5l-212 421q-53 105 -123 150t-195 45h-338v-612q0 -15 -5.5 -21t-18.5 -6h-43 q-15 0 -21 6t-6 21zM262 727h510q155 0 241.5 82.5t86.5 234.5q0 154 -85.5 238t-242.5 84h-510v-639zM432 1585q-15 18 4 29l346 219q29 14 45 -4l21 -23q17 -20 -4 -30l-365 -209q-23 -8 -33 2z" />
<glyph unicode="&#x156;" horiz-adv-x="1310" d="M168 27v1400q0 15 6 21t21 6h587q195 0 305.5 -108t110.5 -302q0 -175 -96 -278t-264 -117q57 -24 95 -63t73 -105l229 -454q8 -11 4.5 -19t-18.5 -8h-39q-25 0 -35.5 4.5t-16.5 18.5l-212 421q-53 105 -123 150t-195 45h-338v-612q0 -15 -5.5 -21t-18.5 -6h-43 q-15 0 -21 6t-6 21zM262 727h510q155 0 241.5 82.5t86.5 234.5q0 154 -85.5 238t-242.5 84h-510v-639zM578 -483l81 299q1 15 7.5 19.5t21.5 4.5h39q32 0 23 -26l-99 -293q-3 -14 -9 -18.5t-19 -4.5h-27q-12 0 -16 4t-2 15z" />
<glyph unicode="&#x157;" horiz-adv-x="1310" d="M168 27v1400q0 15 6 21t21 6h587q195 0 305.5 -108t110.5 -302q0 -175 -96 -278t-264 -117q57 -24 95 -63t73 -105l229 -454q8 -11 4.5 -19t-18.5 -8h-39q-25 0 -35.5 4.5t-16.5 18.5l-212 421q-53 105 -123 150t-195 45h-338v-612q0 -15 -5.5 -21t-18.5 -6h-43 q-15 0 -21 6t-6 21zM262 727h510q155 0 241.5 82.5t86.5 234.5q0 154 -85.5 238t-242.5 84h-510v-639zM578 -483l81 299q1 15 7.5 19.5t21.5 4.5h39q32 0 23 -26l-99 -293q-3 -14 -9 -18.5t-19 -4.5h-27q-12 0 -16 4t-2 15z" />
<glyph unicode="&#x158;" horiz-adv-x="1310" d="M168 27v1400q0 15 6 21t21 6h587q195 0 305.5 -108t110.5 -302q0 -175 -96 -278t-264 -117q57 -24 95 -63t73 -105l229 -454q8 -11 4.5 -19t-18.5 -8h-39q-25 0 -35.5 4.5t-16.5 18.5l-212 421q-53 105 -123 150t-195 45h-338v-612q0 -15 -5.5 -21t-18.5 -6h-43 q-15 0 -21 6t-6 21zM262 727h510q155 0 241.5 82.5t86.5 234.5q0 154 -85.5 238t-242.5 84h-510v-639zM305 1831q3 8 19 8h36q23 0 39 -14l238 -195l235 195q14 14 41 14h37q16 0 19 -7.5t-6 -14.5l-271 -228q-19 -18 -25.5 -21t-23.5 -3h-10q-17 0 -24.5 3.5t-24.5 20.5 l-273 228q-9 6 -6 14z" />
<glyph unicode="&#x159;" horiz-adv-x="1310" d="M168 27v1400q0 15 6 21t21 6h587q195 0 305.5 -108t110.5 -302q0 -175 -96 -278t-264 -117q57 -24 95 -63t73 -105l229 -454q8 -11 4.5 -19t-18.5 -8h-39q-25 0 -35.5 4.5t-16.5 18.5l-212 421q-53 105 -123 150t-195 45h-338v-612q0 -15 -5.5 -21t-18.5 -6h-43 q-15 0 -21 6t-6 21zM262 727h510q155 0 241.5 82.5t86.5 234.5q0 154 -85.5 238t-242.5 84h-510v-639zM305 1831q3 8 19 8h36q23 0 39 -14l238 -195l235 195q14 14 41 14h37q16 0 19 -7.5t-6 -14.5l-271 -228q-19 -18 -25.5 -21t-23.5 -3h-10q-17 0 -24.5 3.5t-24.5 20.5 l-273 228q-9 6 -6 14z" />
<glyph unicode="&#x15a;" horiz-adv-x="1273" d="M84.5 353q2.5 8 17.5 14l39 14q13 5 20.5 2t14.5 -18q66 -156 179 -230t284 -74q446 0 446 324q0 51 -13.5 91.5t-33 68.5t-56 50.5t-67.5 35.5t-83.5 24t-87.5 16.5t-95 12.5q-52 6 -86.5 11t-84 14.5t-82.5 19.5t-74.5 26.5t-68.5 36t-55.5 48t-45 62t-27 77.5 t-10.5 96q0 189 136.5 298.5t377.5 109.5q203 0 329 -76.5t207 -241.5q14 -25 -12 -35l-41 -18q-12 -5 -19 -3t-14 15q-70 139 -175.5 204t-274.5 65q-198 0 -308 -82t-110 -230q0 -51 14 -92t36 -70t59 -52t72 -37t87 -25t92.5 -17t98.5 -12q50 -6 84 -10.5t80.5 -13.5 t79 -19t71.5 -26.5t65 -36t52.5 -47.5t42.5 -61.5t25.5 -77.5t9.5 -95q0 -201 -138 -309.5t-403 -108.5q-213 0 -345 87t-206 272q-6 15 -3.5 23zM438 1606q-15 15 2 26l346 219q32 14 48 -2l18 -22q20 -23 -4 -31l-363 -211q-22 -8 -32 4z" />
<glyph unicode="&#x15b;" horiz-adv-x="1273" d="M84.5 353q2.5 8 17.5 14l39 14q13 5 20.5 2t14.5 -18q66 -156 179 -230t284 -74q446 0 446 324q0 51 -13.5 91.5t-33 68.5t-56 50.5t-67.5 35.5t-83.5 24t-87.5 16.5t-95 12.5q-52 6 -86.5 11t-84 14.5t-82.5 19.5t-74.5 26.5t-68.5 36t-55.5 48t-45 62t-27 77.5 t-10.5 96q0 189 136.5 298.5t377.5 109.5q203 0 329 -76.5t207 -241.5q14 -25 -12 -35l-41 -18q-12 -5 -19 -3t-14 15q-70 139 -175.5 204t-274.5 65q-198 0 -308 -82t-110 -230q0 -51 14 -92t36 -70t59 -52t72 -37t87 -25t92.5 -17t98.5 -12q50 -6 84 -10.5t80.5 -13.5 t79 -19t71.5 -26.5t65 -36t52.5 -47.5t42.5 -61.5t25.5 -77.5t9.5 -95q0 -201 -138 -309.5t-403 -108.5q-213 0 -345 87t-206 272q-6 15 -3.5 23zM438 1606q-15 15 2 26l346 219q32 14 48 -2l18 -22q20 -23 -4 -31l-363 -211q-22 -8 -32 4z" />
<glyph unicode="&#x15c;" horiz-adv-x="1273" d="M84.5 353q2.5 8 17.5 14l39 14q13 5 20.5 2t14.5 -18q66 -156 179 -230t284 -74q446 0 446 324q0 51 -13.5 91.5t-33 68.5t-56 50.5t-67.5 35.5t-83.5 24t-87.5 16.5t-95 12.5q-52 6 -86.5 11t-84 14.5t-82.5 19.5t-74.5 26.5t-68.5 36t-55.5 48t-45 62t-27 77.5 t-10.5 96q0 189 136.5 298.5t377.5 109.5q203 0 329 -76.5t207 -241.5q14 -25 -12 -35l-41 -18q-12 -5 -19 -3t-14 15q-70 139 -175.5 204t-274.5 65q-198 0 -308 -82t-110 -230q0 -51 14 -92t36 -70t59 -52t72 -37t87 -25t92.5 -17t98.5 -12q50 -6 84 -10.5t80.5 -13.5 t79 -19t71.5 -26.5t65 -36t52.5 -47.5t42.5 -61.5t25.5 -77.5t9.5 -95q0 -201 -138 -309.5t-403 -108.5q-213 0 -345 87t-206 272q-6 15 -3.5 23zM311 1589.5q-3 6.5 6 14.5l273 231q3 2 7.5 6t6 5t5 3.5t4.5 3l4 2t4.5 2t4.5 1t6 0.5h7h12q14 0 21.5 -3.5t27.5 -19.5 l271 -231q9 -8 6 -14.5t-19 -6.5h-36q-26 0 -43 14l-234 195l-237 -195q-16 -14 -39 -14h-39q-16 0 -19 6.5z" />
<glyph unicode="&#x15d;" horiz-adv-x="1273" d="M84.5 353q2.5 8 17.5 14l39 14q13 5 20.5 2t14.5 -18q66 -156 179 -230t284 -74q446 0 446 324q0 51 -13.5 91.5t-33 68.5t-56 50.5t-67.5 35.5t-83.5 24t-87.5 16.5t-95 12.5q-52 6 -86.5 11t-84 14.5t-82.5 19.5t-74.5 26.5t-68.5 36t-55.5 48t-45 62t-27 77.5 t-10.5 96q0 189 136.5 298.5t377.5 109.5q203 0 329 -76.5t207 -241.5q14 -25 -12 -35l-41 -18q-12 -5 -19 -3t-14 15q-70 139 -175.5 204t-274.5 65q-198 0 -308 -82t-110 -230q0 -51 14 -92t36 -70t59 -52t72 -37t87 -25t92.5 -17t98.5 -12q50 -6 84 -10.5t80.5 -13.5 t79 -19t71.5 -26.5t65 -36t52.5 -47.5t42.5 -61.5t25.5 -77.5t9.5 -95q0 -201 -138 -309.5t-403 -108.5q-213 0 -345 87t-206 272q-6 15 -3.5 23zM311 1589.5q-3 6.5 6 14.5l273 231q3 2 7.5 6t6 5t5 3.5t4.5 3l4 2t4.5 2t4.5 1t6 0.5h7h12q14 0 21.5 -3.5t27.5 -19.5 l271 -231q9 -8 6 -14.5t-19 -6.5h-36q-26 0 -43 14l-234 195l-237 -195q-16 -14 -39 -14h-39q-16 0 -19 6.5z" />
<glyph unicode="&#x15e;" horiz-adv-x="1273" d="M86 330q-11 26 16 37l39 14q13 5 20 2t13 -18q68 -156 180.5 -230t282.5 -74q446 0 446 324q0 40 -8 73.5t-20.5 59t-35.5 47t-43.5 36t-55 27.5t-60 20.5t-68 15t-70 11t-73.5 9.5q-52 6 -86.5 11t-84 14.5t-82.5 19.5t-74.5 26.5t-68.5 36t-55.5 48t-45 62t-27 77.5 t-10.5 96q0 189 135.5 298.5t378.5 109.5q203 0 329 -76.5t207 -241.5q14 -26 -14 -35l-39 -18q-23 -9 -35 12q-69 139 -174 204t-274 65q-198 0 -308 -82t-110 -230q0 -51 14 -92t36 -70t59 -52t72 -37t87 -25t92.5 -17t98.5 -12q49 -6 83 -10.5t81 -13.5t79 -19t71 -26.5 t65.5 -36t53 -47.5t42 -61.5t25.5 -77.5t10 -95q0 -195 -127 -302t-373 -116l-51 -143q32 8 65 8q82 0 129.5 -41.5t46.5 -111.5q-4 -93 -66 -142t-163 -49q-98 0 -172 45q-18 10 -18 31v26q0 19 14 11q73 -56 168 -56q75 0 117.5 36.5t42.5 99.5q0 100 -140 100 q-49 0 -78 -10q-15 -3 -19.5 4t1.5 22l64 170q-205 3 -333 90t-202 269z" />
<glyph unicode="&#x15f;" horiz-adv-x="1273" d="M86 330q-11 26 16 37l39 14q13 5 20 2t13 -18q68 -156 180.5 -230t282.5 -74q446 0 446 324q0 40 -8 73.5t-20.5 59t-35.5 47t-43.5 36t-55 27.5t-60 20.5t-68 15t-70 11t-73.5 9.5q-52 6 -86.5 11t-84 14.5t-82.5 19.5t-74.5 26.5t-68.5 36t-55.5 48t-45 62t-27 77.5 t-10.5 96q0 189 135.5 298.5t378.5 109.5q203 0 329 -76.5t207 -241.5q14 -26 -14 -35l-39 -18q-23 -9 -35 12q-69 139 -174 204t-274 65q-198 0 -308 -82t-110 -230q0 -51 14 -92t36 -70t59 -52t72 -37t87 -25t92.5 -17t98.5 -12q49 -6 83 -10.5t81 -13.5t79 -19t71 -26.5 t65.5 -36t53 -47.5t42 -61.5t25.5 -77.5t10 -95q0 -195 -127 -302t-373 -116l-51 -143q32 8 65 8q82 0 129.5 -41.5t46.5 -111.5q-4 -93 -66 -142t-163 -49q-98 0 -172 45q-18 10 -18 31v26q0 19 14 11q73 -56 168 -56q75 0 117.5 36.5t42.5 99.5q0 100 -140 100 q-49 0 -78 -10q-15 -3 -19.5 4t1.5 22l64 170q-205 3 -333 90t-202 269z" />
<glyph unicode="&#x160;" horiz-adv-x="1273" d="M84.5 353q2.5 8 17.5 14l39 14q13 5 20.5 2t14.5 -18q66 -156 179 -230t284 -74q446 0 446 324q0 51 -13.5 91.5t-33 68.5t-56 50.5t-67.5 35.5t-83.5 24t-87.5 16.5t-95 12.5q-52 6 -86.5 11t-84 14.5t-82.5 19.5t-74.5 26.5t-68.5 36t-55.5 48t-45 62t-27 77.5 t-10.5 96q0 189 136.5 298.5t377.5 109.5q203 0 329 -76.5t207 -241.5q14 -25 -12 -35l-41 -18q-12 -5 -19 -3t-14 15q-70 139 -175.5 204t-274.5 65q-198 0 -308 -82t-110 -230q0 -51 14 -92t36 -70t59 -52t72 -37t87 -25t92.5 -17t98.5 -12q50 -6 84 -10.5t80.5 -13.5 t79 -19t71.5 -26.5t65 -36t52.5 -47.5t42.5 -61.5t25.5 -77.5t9.5 -95q0 -201 -138 -309.5t-403 -108.5q-213 0 -345 87t-206 272q-6 15 -3.5 23zM310 1850q2 8 18 8h39q21 0 39 -15l237 -194l234 194q15 15 43 15h36q16 0 18 -8t-5 -15l-271 -227q-18 -16 -25.5 -19.5 t-23.5 -3.5h-12q-17 0 -23.5 3t-23.5 20l-273 227q-9 7 -7 15z" />
<glyph unicode="&#x161;" horiz-adv-x="1273" d="M84.5 353q2.5 8 17.5 14l39 14q13 5 20.5 2t14.5 -18q66 -156 179 -230t284 -74q446 0 446 324q0 51 -13.5 91.5t-33 68.5t-56 50.5t-67.5 35.5t-83.5 24t-87.5 16.5t-95 12.5q-52 6 -86.5 11t-84 14.5t-82.5 19.5t-74.5 26.5t-68.5 36t-55.5 48t-45 62t-27 77.5 t-10.5 96q0 189 136.5 298.5t377.5 109.5q203 0 329 -76.5t207 -241.5q14 -25 -12 -35l-41 -18q-12 -5 -19 -3t-14 15q-70 139 -175.5 204t-274.5 65q-198 0 -308 -82t-110 -230q0 -51 14 -92t36 -70t59 -52t72 -37t87 -25t92.5 -17t98.5 -12q50 -6 84 -10.5t80.5 -13.5 t79 -19t71.5 -26.5t65 -36t52.5 -47.5t42.5 -61.5t25.5 -77.5t9.5 -95q0 -201 -138 -309.5t-403 -108.5q-213 0 -345 87t-206 272q-6 15 -3.5 23zM310 1850q2 8 18 8h39q21 0 39 -15l237 -194l234 194q15 15 43 15h36q16 0 18 -8t-5 -15l-271 -227q-18 -16 -25.5 -19.5 t-23.5 -3.5h-12q-17 0 -23.5 3t-23.5 20l-273 227q-9 7 -7 15z" />
<glyph unicode="&#x164;" horiz-adv-x="1089" d="M27 1391v36q0 15 5.5 21t20.5 6h983q15 0 21 -6t6 -21v-36q0 -25 -27 -25h-444v-1339q0 -27 -25 -27h-43q-15 0 -20.5 6t-5.5 21v1339h-445q-15 0 -20.5 5.5t-5.5 19.5zM211.5 1831q1.5 8 17.5 8h39q23 0 39 -14l238 -195l233 195q14 14 43 14h37q30 0 12 -22l-270 -228 q-18 -17 -26 -20.5t-23 -3.5h-12q-17 0 -24 3.5t-26 20.5l-270 228q-9 6 -7.5 14z" />
<glyph unicode="&#x165;" horiz-adv-x="1089" d="M27 1391v36q0 15 5.5 21t20.5 6h983q15 0 21 -6t6 -21v-36q0 -25 -27 -25h-444v-1339q0 -27 -25 -27h-43q-15 0 -20.5 6t-5.5 21v1339h-445q-15 0 -20.5 5.5t-5.5 19.5zM211.5 1831q1.5 8 17.5 8h39q23 0 39 -14l238 -195l233 195q14 14 43 14h37q30 0 12 -22l-270 -228 q-18 -17 -26 -20.5t-23 -3.5h-12q-17 0 -24 3.5t-26 20.5l-270 228q-9 6 -7.5 14z" />
<glyph unicode="&#x166;" horiz-adv-x="1136" d="M51 1391v36q0 15 6 21t21 6h983q15 0 20.5 -6t5.5 -21v-36q0 -14 -5.5 -19.5t-20.5 -5.5h-445v-653h310q12 0 16 -4.5t4 -16.5v-30q0 -12 -4 -16.5t-16 -4.5h-310v-614q0 -15 -5.5 -21t-18.5 -6h-45q-25 0 -25 27v614h-309q-12 0 -16 4.5t-4 16.5v30q0 21 20 21h309v653 h-444q-27 0 -27 25z" />
<glyph unicode="&#x167;" horiz-adv-x="1136" d="M51 1391v36q0 15 6 21t21 6h983q15 0 20.5 -6t5.5 -21v-36q0 -14 -5.5 -19.5t-20.5 -5.5h-445v-653h310q12 0 16 -4.5t4 -16.5v-30q0 -12 -4 -16.5t-16 -4.5h-310v-614q0 -15 -5.5 -21t-18.5 -6h-45q-25 0 -25 27v614h-309q-12 0 -16 4.5t-4 16.5v30q0 21 20 21h309v653 h-444q-27 0 -27 25z" />
<glyph unicode="&#x168;" d="M156 492v935q0 15 5.5 21t20.5 6h43q25 0 25 -27v-935q0 -204 113 -319.5t333 -115.5q219 0 332 116t113 319v935q0 15 5.5 21t18.5 6h45q25 0 25 -27v-935q0 -244 -137.5 -383.5t-401.5 -139.5q-265 0 -402.5 139.5t-137.5 383.5zM377 1599q0 93 39 143t114 50 q49 0 95 -23t75.5 -50.5t70 -50.5t79.5 -23q48 0 73 35.5t25 95.5q0 9 3.5 12.5t13.5 3.5h26q17 0 17 -16q0 -193 -154 -193q-39 0 -75.5 15t-64 37t-54 44t-58.5 37t-65 15q-46 0 -72.5 -36t-26.5 -96q0 -16 -16 -16h-29q-16 0 -16 16z" />
<glyph unicode="&#x169;" d="M156 492v935q0 15 5.5 21t20.5 6h43q25 0 25 -27v-935q0 -204 113 -319.5t333 -115.5q219 0 332 116t113 319v935q0 15 5.5 21t18.5 6h45q25 0 25 -27v-935q0 -244 -137.5 -383.5t-401.5 -139.5q-265 0 -402.5 139.5t-137.5 383.5zM389 1794q-6 17 10 23l35 12 q18 5 25 -10q25 -95 82.5 -140t154.5 -45q96 0 154 45t84 140q5 16 22 10l35 -12q19 -6 13 -23q-34 -117 -109.5 -173t-198.5 -56q-244 0 -307 229z" />
<glyph unicode="&#x16a;" d="M156 492v935q0 15 5.5 21t20.5 6h43q25 0 25 -27v-935q0 -204 113 -319.5t333 -115.5q219 0 332 116t113 319v935q0 15 5.5 21t18.5 6h45q25 0 25 -27v-935q0 -244 -137.5 -383.5t-401.5 -139.5q-265 0 -402.5 139.5t-137.5 383.5zM430 1675v21q0 13 5 17.5t18 4.5h485 q14 0 19.5 -4.5t5.5 -17.5v-21q0 -24 -25 -24h-485q-13 0 -18 5t-5 19z" />
<glyph unicode="&#x16b;" d="M156 492v935q0 15 5.5 21t20.5 6h43q25 0 25 -27v-935q0 -204 113 -319.5t333 -115.5q219 0 332 116t113 319v935q0 15 5.5 21t18.5 6h45q25 0 25 -27v-935q0 -244 -137.5 -383.5t-401.5 -139.5q-265 0 -402.5 139.5t-137.5 383.5zM430 1675v21q0 13 5 17.5t18 4.5h485 q14 0 19.5 -4.5t5.5 -17.5v-21q0 -24 -25 -24h-485q-13 0 -18 5t-5 19z" />
<glyph unicode="&#x16c;" d="M156 492v935q0 15 5.5 21t20.5 6h43q25 0 25 -27v-935q0 -204 113 -319.5t333 -115.5q219 0 332 116t113 319v935q0 15 5.5 21t18.5 6h45q25 0 25 -27v-935q0 -244 -137.5 -383.5t-401.5 -139.5q-265 0 -402.5 139.5t-137.5 383.5zM389 1794q-6 17 10 23l35 12 q18 5 25 -10q25 -95 82.5 -140t154.5 -45q96 0 154 45t84 140q5 16 22 10l35 -12q19 -6 13 -23q-34 -117 -109.5 -173t-198.5 -56q-244 0 -307 229z" />
<glyph unicode="&#x16d;" d="M156 492v935q0 15 5.5 21t20.5 6h43q25 0 25 -27v-935q0 -204 113 -319.5t333 -115.5q219 0 332 116t113 319v935q0 15 5.5 21t18.5 6h45q25 0 25 -27v-935q0 -244 -137.5 -383.5t-401.5 -139.5q-265 0 -402.5 139.5t-137.5 383.5zM389 1794q-6 17 10 23l35 12 q18 5 25 -10q25 -95 82.5 -140t154.5 -45q96 0 154 45t84 140q5 16 22 10l35 -12q19 -6 13 -23q-34 -117 -109.5 -173t-198.5 -56q-244 0 -307 229z" />
<glyph unicode="&#x16e;" d="M156 492v935q0 15 5.5 21t20.5 6h43q25 0 25 -27v-935q0 -204 113 -319.5t333 -115.5q219 0 332 116t113 319v935q0 15 5.5 21t18.5 6h45q25 0 25 -27v-935q0 -244 -137.5 -383.5t-401.5 -139.5q-265 0 -402.5 139.5t-137.5 383.5zM498 1714q0 89 54 142t146 53 q91 0 144 -53t53 -142q0 -88 -53 -140t-144 -52q-92 0 -146 52t-54 140zM549 1714q0 -65 40 -103t109 -38q67 0 106.5 38t39.5 103q0 66 -39.5 105t-106.5 39q-69 0 -109 -39t-40 -105z" />
<glyph unicode="&#x16f;" d="M156 492v935q0 15 5.5 21t20.5 6h43q25 0 25 -27v-935q0 -204 113 -319.5t333 -115.5q219 0 332 116t113 319v935q0 15 5.5 21t18.5 6h45q25 0 25 -27v-935q0 -244 -137.5 -383.5t-401.5 -139.5q-265 0 -402.5 139.5t-137.5 383.5zM498 1714q0 89 54 142t146 53 q91 0 144 -53t53 -142q0 -88 -53 -140t-144 -52q-92 0 -146 52t-54 140zM549 1714q0 -65 40 -103t109 -38q67 0 106.5 38t39.5 103q0 66 -39.5 105t-106.5 39q-69 0 -109 -39t-40 -105z" />
<glyph unicode="&#x170;" d="M156 492v935q0 15 5.5 21t20.5 6h43q25 0 25 -27v-935q0 -204 113 -319.5t333 -115.5q219 0 332 116t113 319v935q0 15 5.5 21t18.5 6h45q25 0 25 -27v-935q0 -244 -137.5 -383.5t-401.5 -139.5q-265 0 -402.5 139.5t-137.5 383.5zM420 1593l207 232q18 21 41 16l30 -8 q28 -8 11 -29l-232 -231q-16 -16 -31 -10l-18 6q-21 5 -8 24zM774 1591l211 234q18 21 41 16l33 -8q28 -9 8 -29l-236 -233q-18 -17 -30 -10l-19 6q-23 6 -8 24z" />
<glyph unicode="&#x171;" d="M156 492v935q0 15 5.5 21t20.5 6h43q25 0 25 -27v-935q0 -204 113 -319.5t333 -115.5q219 0 332 116t113 319v935q0 15 5.5 21t18.5 6h45q25 0 25 -27v-935q0 -244 -137.5 -383.5t-401.5 -139.5q-265 0 -402.5 139.5t-137.5 383.5zM420 1593l207 232q18 21 41 16l30 -8 q28 -8 11 -29l-232 -231q-16 -16 -31 -10l-18 6q-21 5 -8 24zM774 1591l211 234q18 21 41 16l33 -8q28 -9 8 -29l-236 -233q-18 -17 -30 -10l-19 6q-23 6 -8 24z" />
<glyph unicode="&#x172;" d="M156 492v935q0 15 5.5 21t20.5 6h43q25 0 25 -27v-935q0 -204 113 -319.5t333 -115.5q219 0 332 116t113 319v935q0 15 5.5 21t18.5 6h45q25 0 25 -27v-935q0 -294 -188 -424q-134 -112 -215 -244t-56 -195q10 -32 35.5 -47.5t56.5 -15.5q74 0 129 55q14 11 17 -4l12 -29 q5 -11 -4 -20q-74 -74 -178 -74q-119 0 -146 96q-25 76 34 189.5t169 220.5q-88 -31 -205 -31q-265 0 -402.5 139.5t-137.5 383.5z" />
<glyph unicode="&#x173;" d="M156 492v935q0 15 5.5 21t20.5 6h43q25 0 25 -27v-935q0 -204 113 -319.5t333 -115.5q219 0 332 116t113 319v935q0 15 5.5 21t18.5 6h45q25 0 25 -27v-935q0 -294 -188 -424q-134 -112 -215 -244t-56 -195q10 -32 35.5 -47.5t56.5 -15.5q74 0 129 55q14 11 17 -4l12 -29 q5 -11 -4 -20q-74 -74 -178 -74q-119 0 -146 96q-25 76 34 189.5t169 220.5q-88 -31 -205 -31q-265 0 -402.5 139.5t-137.5 383.5z" />
<glyph unicode="&#x174;" horiz-adv-x="1781" d="M49 1430q-6 24 17 24h51q18 0 25 -4.5t10 -17.5l292 -1102q7 -30 21 -100.5t20 -94.5h4q40 171 46 193l305 1071q5 24 34 24h41q30 0 35 -24l305 -1075q15 -56 43 -189h7q17 95 36 189l295 1108q3 13 10 17.5t25 4.5h45q26 0 17 -24l-379 -1405q-7 -25 -35 -25h-41 q-30 0 -35 23l-305 1079q-23 86 -43 186h-6q-21 -108 -45 -186l-305 -1077q-5 -25 -35 -25h-39q-30 0 -35 23zM563 1571.5q-3 6.5 6 13.5l273 230q18 17 24.5 19.5t24.5 2.5h12q12 0 16.5 -0.5t12 -5.5t18.5 -16l273 -230q9 -7 6 -13.5t-19 -6.5h-39q-27 0 -41 14l-233 195 l-238 -195q-16 -14 -41 -14h-36q-16 0 -19 6.5z" />
<glyph unicode="&#x175;" horiz-adv-x="1781" d="M49 1430q-6 24 17 24h51q18 0 25 -4.5t10 -17.5l292 -1102q7 -30 21 -100.5t20 -94.5h4q40 171 46 193l305 1071q5 24 34 24h41q30 0 35 -24l305 -1075q15 -56 43 -189h7q17 95 36 189l295 1108q3 13 10 17.5t25 4.5h45q26 0 17 -24l-379 -1405q-7 -25 -35 -25h-41 q-30 0 -35 23l-305 1079q-23 86 -43 186h-6q-21 -108 -45 -186l-305 -1077q-5 -25 -35 -25h-39q-30 0 -35 23zM563 1571.5q-3 6.5 6 13.5l273 230q18 17 24.5 19.5t24.5 2.5h12q12 0 16.5 -0.5t12 -5.5t18.5 -16l273 -230q9 -7 6 -13.5t-19 -6.5h-39q-27 0 -41 14l-233 195 l-238 -195q-16 -14 -41 -14h-36q-16 0 -19 6.5z" />
<glyph unicode="&#x176;" horiz-adv-x="1267" d="M30.5 1446q3.5 8 16.5 8h55q23 0 32 -4t16 -18l485 -736l485 736q9 15 17.5 18.5t31.5 3.5h52q13 0 16.5 -8t-2.5 -19l-555 -829v-571q0 -27 -25 -27h-43q-15 0 -20.5 6t-5.5 21v573l-553 827q-6 11 -2.5 19zM303 1571.5q-3 6.5 6 13.5l273 230q16 16 23 19t26 3h12 q12 0 16.5 -0.5t12 -5.5t18.5 -16l273 -230q9 -7 6 -13.5t-19 -6.5h-39q-27 0 -41 14l-235 195l-238 -195q-14 -14 -39 -14h-36q-16 0 -19 6.5z" />
<glyph unicode="&#x177;" horiz-adv-x="1267" d="M30.5 1446q3.5 8 16.5 8h55q23 0 32 -4t16 -18l485 -736l485 736q9 15 17.5 18.5t31.5 3.5h52q13 0 16.5 -8t-2.5 -19l-555 -829v-571q0 -27 -25 -27h-43q-15 0 -20.5 6t-5.5 21v573l-553 827q-6 11 -2.5 19zM303 1571.5q-3 6.5 6 13.5l273 230q16 16 23 19t26 3h12 q12 0 16.5 -0.5t12 -5.5t18.5 -16l273 -230q9 -7 6 -13.5t-19 -6.5h-39q-27 0 -41 14l-235 195l-238 -195q-14 -14 -39 -14h-36q-16 0 -19 6.5z" />
<glyph unicode="&#x178;" horiz-adv-x="1267" d="M30.5 1446q3.5 8 16.5 8h55q23 0 32 -4t16 -18l485 -736l485 736q9 15 17.5 18.5t31.5 3.5h52q13 0 16.5 -8t-2.5 -19l-555 -829v-571q0 -27 -25 -27h-43q-15 0 -20.5 6t-5.5 21v573l-553 827q-6 11 -2.5 19zM387 1686v14q0 26 10.5 36.5t36.5 10.5h12q28 0 38 -10.5 t10 -36.5v-14q0 -26 -10 -36t-38 -10h-12q-26 0 -36.5 10t-10.5 36zM778 1686v14q0 27 10 37t37 10h13q26 0 36.5 -10.5t10.5 -36.5v-14q0 -26 -10.5 -36t-36.5 -10h-13q-27 0 -37 10t-10 36z" />
<glyph unicode="&#x179;" horiz-adv-x="1136" d="M66 27v34q0 20 10 35l860 1270h-836q-15 0 -20.5 5.5t-5.5 19.5v36q0 15 5.5 21t20.5 6h928q15 0 21 -6t6 -21v-32q0 -19 -11 -33l-862 -1272h871q15 0 20.5 -6t5.5 -21v-36q0 -15 -5.5 -21t-20.5 -6h-963q-13 0 -18.5 6t-5.5 21zM371 1585q-16 19 2 29l346 219 q31 14 47 -4l18 -23q18 -20 -4 -30l-364 -209q-23 -8 -33 2z" />
<glyph unicode="&#x17a;" horiz-adv-x="1136" d="M66 27v34q0 20 10 35l860 1270h-836q-15 0 -20.5 5.5t-5.5 19.5v36q0 15 5.5 21t20.5 6h928q15 0 21 -6t6 -21v-32q0 -19 -11 -33l-862 -1272h871q15 0 20.5 -6t5.5 -21v-36q0 -15 -5.5 -21t-20.5 -6h-963q-13 0 -18.5 6t-5.5 21zM371 1585q-16 19 2 29l346 219 q31 14 47 -4l18 -23q18 -20 -4 -30l-364 -209q-23 -8 -33 2z" />
<glyph unicode="&#x17b;" horiz-adv-x="1136" d="M66 27v34q0 20 10 35l860 1270h-836q-15 0 -20.5 5.5t-5.5 19.5v36q0 15 5.5 21t20.5 6h928q15 0 21 -6t6 -21v-32q0 -19 -11 -33l-862 -1272h871q15 0 20.5 -6t5.5 -21v-36q0 -15 -5.5 -21t-20.5 -6h-963q-13 0 -18.5 6t-5.5 21zM522 1679v11q0 29 10.5 39t38.5 10h11 q28 0 37.5 -10t9.5 -39v-11q0 -28 -9.5 -37.5t-37.5 -9.5h-11q-29 0 -39 9t-10 38z" />
<glyph unicode="&#x17c;" horiz-adv-x="1136" d="M66 27v34q0 20 10 35l860 1270h-836q-15 0 -20.5 5.5t-5.5 19.5v36q0 15 5.5 21t20.5 6h928q15 0 21 -6t6 -21v-32q0 -19 -11 -33l-862 -1272h871q15 0 20.5 -6t5.5 -21v-36q0 -15 -5.5 -21t-20.5 -6h-963q-13 0 -18.5 6t-5.5 21zM522 1679v11q0 29 10.5 39t38.5 10h11 q28 0 37.5 -10t9.5 -39v-11q0 -28 -9.5 -37.5t-37.5 -9.5h-11q-29 0 -39 9t-10 38z" />
<glyph unicode="&#x17d;" horiz-adv-x="1136" d="M66 27v34q0 20 10 35l860 1270h-836q-15 0 -20.5 5.5t-5.5 19.5v36q0 15 5.5 21t20.5 6h928q15 0 21 -6t6 -21v-32q0 -19 -11 -33l-862 -1272h871q15 0 20.5 -6t5.5 -21v-36q0 -15 -5.5 -21t-20.5 -6h-963q-13 0 -18.5 6t-5.5 21zM242 1831q2 8 18 8h37q25 0 39 -14 l237 -195l236 195q14 14 41 14h39q16 0 17.5 -7.5t-7.5 -14.5l-270 -228q-17 -17 -24.5 -20.5t-22.5 -3.5h-13q-17 0 -24.5 3.5t-24.5 20.5l-272 228q-8 6 -6 14z" />
<glyph unicode="&#x17e;" horiz-adv-x="1136" d="M66 27v34q0 20 10 35l860 1270h-836q-15 0 -20.5 5.5t-5.5 19.5v36q0 15 5.5 21t20.5 6h928q15 0 21 -6t6 -21v-32q0 -19 -11 -33l-862 -1272h871q15 0 20.5 -6t5.5 -21v-36q0 -15 -5.5 -21t-20.5 -6h-963q-13 0 -18.5 6t-5.5 21zM242 1831q2 8 18 8h37q25 0 39 -14 l237 -195l236 195q14 14 41 14h39q16 0 17.5 -7.5t-7.5 -14.5l-270 -228q-17 -17 -24.5 -20.5t-22.5 -3.5h-13q-17 0 -24.5 3.5t-24.5 20.5l-272 228q-8 6 -6 14z" />
<glyph unicode="&#x17f;" horiz-adv-x="497" d="M16 991v35q0 23 25 23h182v69q0 221 93 309.5t319 88.5q22 0 22 -25v-35q0 -13 -5 -17.5t-17 -4.5q-187 0 -255.5 -67t-68.5 -255v-1087q0 -25 -24 -25h-39q-25 0 -25 25v944h-182q-25 0 -25 22z" />
<glyph unicode="&#x192;" horiz-adv-x="894" d="M-59 -391q0 13 5 17.5t19 4.5q165 0 243.5 86t94.5 246l80 729h-297q-14 0 -19.5 5t-5.5 18v35q0 24 25 24h305l37 336q20 195 120 300.5t306 105.5q25 0 25 -25v-35q0 -13 -5.5 -17.5t-19.5 -4.5q-166 0 -242.5 -83.5t-95.5 -244.5l-35 -332h314q13 0 18.5 -5t5.5 -19 v-35q0 -13 -5 -18t-19 -5h-324l-78 -735q-11 -95 -38.5 -167.5t-77.5 -127.5t-128.5 -84t-183.5 -29q-24 0 -24 25v35z" />
<glyph unicode="&#x1fa;" horiz-adv-x="1294" d="M25 25l559 1380q-62 12 -98.5 54t-36.5 100q0 82 55 134t143 52q86 0 140.5 -52t54.5 -134q0 -59 -35.5 -101.5t-95.5 -52.5l557 -1380q14 -25 -19 -25h-37q-23 0 -32.5 4.5t-14.5 18.5l-186 469h-668l-188 -469q-5 -14 -13.5 -18.5t-31.5 -4.5h-35q-29 0 -18 25z M340 571h610l-209 527q-17 45 -48.5 140.5t-43.5 123.5h-6q-13 -29 -43.5 -124.5t-46.5 -137.5zM459 1780q-13 13 12 24l320 150q31 12 43 -2l16 -21q9 -9 8.5 -13.5t-12.5 -8.5l-344 -146q-21 -8 -31 2zM506 1561q0 -53 39 -87t102 -34q61 0 100 34t39 87q0 59 -39 96 t-100 37q-63 0 -102 -37t-39 -96z" />
<glyph unicode="&#x1fb;" horiz-adv-x="1294" d="M25 25l559 1380q-62 12 -98.5 54t-36.5 100q0 82 55 134t143 52q86 0 140.5 -52t54.5 -134q0 -59 -35.5 -101.5t-95.5 -52.5l557 -1380q14 -25 -19 -25h-37q-23 0 -32.5 4.5t-14.5 18.5l-186 469h-668l-188 -469q-5 -14 -13.5 -18.5t-31.5 -4.5h-35q-29 0 -18 25z M340 571h610l-209 527q-17 45 -48.5 140.5t-43.5 123.5h-6q-13 -29 -43.5 -124.5t-46.5 -137.5zM459 1780q-13 13 12 24l320 150q31 12 43 -2l16 -21q9 -9 8.5 -13.5t-12.5 -8.5l-344 -146q-21 -8 -31 2zM506 1561q0 -53 39 -87t102 -34q61 0 100 34t39 87q0 59 -39 96 t-100 37q-63 0 -102 -37t-39 -96z" />
<glyph unicode="&#x1fc;" horiz-adv-x="1673" d="M-6 25l856 1405q9 15 15.5 19.5t19.5 4.5h653q25 0 25 -27v-36q0 -25 -25 -25h-577v-586h487q15 0 21 -5.5t6 -20.5v-37q0 -25 -27 -25h-487v-604h606q24 0 24 -25v-36q0 -15 -5.5 -21t-18.5 -6h-674q-25 0 -25 27v356h-553l-217 -360q-8 -13 -16.5 -18t-28.5 -5h-41 q-29 0 -18 25zM365 463h503v837zM1004 1585q-15 18 2 29l348 219q29 14 45 -4l18 -23q20 -20 -4 -30l-362 -209q-23 -8 -33 2z" />
<glyph unicode="&#x1fd;" horiz-adv-x="1673" d="M-6 25l856 1405q9 15 15.5 19.5t19.5 4.5h653q25 0 25 -27v-36q0 -25 -25 -25h-577v-586h487q15 0 21 -5.5t6 -20.5v-37q0 -25 -27 -25h-487v-604h606q24 0 24 -25v-36q0 -15 -5.5 -21t-18.5 -6h-674q-25 0 -25 27v356h-553l-217 -360q-8 -13 -16.5 -18t-28.5 -5h-41 q-29 0 -18 25zM365 463h503v837zM1004 1585q-15 18 2 29l348 219q29 14 45 -4l18 -23q20 -20 -4 -30l-362 -209q-23 -8 -33 2z" />
<glyph unicode="&#x1fe;" horiz-adv-x="1351" d="M125 477v500q0 238 143 372t410 134q243 0 379 -115l100 158q8 8 21 8h55q9 0 6 -10l-129 -201q117 -126 117 -346v-500q0 -238 -142.5 -372t-406.5 -134q-232 0 -367 101l-96 -150q-4 -7 -8 -8.5t-17 -1.5h-51q-13 0 -6 10l123 193q-131 131 -131 362zM219 477 q0 -171 96 -272l693 1085q-117 105 -330 105q-222 0 -340.5 -110t-118.5 -308v-500zM360 152q120 -93 318 -93q219 0 337 110t118 308v500q0 159 -80 254zM483 1606q-15 17 2 28l349 219q29 14 45 -4l18 -22q20 -20 -4 -31l-363 -209q-22 -8 -32 2z" />
<glyph unicode="&#x1ff;" horiz-adv-x="1351" d="M125 477v500q0 238 143 372t410 134q243 0 379 -115l100 158q8 8 21 8h55q9 0 6 -10l-129 -201q117 -126 117 -346v-500q0 -238 -142.5 -372t-406.5 -134q-232 0 -367 101l-96 -150q-4 -7 -8 -8.5t-17 -1.5h-51q-13 0 -6 10l123 193q-131 131 -131 362zM219 477 q0 -171 96 -272l693 1085q-117 105 -330 105q-222 0 -340.5 -110t-118.5 -308v-500zM360 152q120 -93 318 -93q219 0 337 110t118 308v500q0 159 -80 254zM483 1606q-15 17 2 28l349 219q29 14 45 -4l18 -22q20 -20 -4 -31l-363 -209q-22 -8 -32 2z" />
<glyph unicode="&#x218;" horiz-adv-x="1273" d="M84.5 353q2.5 8 17.5 14l39 14q13 5 20.5 2t14.5 -18q66 -156 179 -230t284 -74q446 0 446 324q0 51 -13.5 91.5t-33 68.5t-56 50.5t-67.5 35.5t-83.5 24t-87.5 16.5t-95 12.5q-52 6 -86.5 11t-84 14.5t-82.5 19.5t-74.5 26.5t-68.5 36t-55.5 48t-45 62t-27 77.5 t-10.5 96q0 189 136.5 298.5t377.5 109.5q203 0 329 -76.5t207 -241.5q14 -25 -12 -35l-41 -18q-12 -5 -19 -3t-14 15q-70 139 -175.5 204t-274.5 65q-198 0 -308 -82t-110 -230q0 -51 14 -92t36 -70t59 -52t72 -37t87 -25t92.5 -17t98.5 -12q50 -6 84 -10.5t80.5 -13.5 t79 -19t71.5 -26.5t65 -36t52.5 -47.5t42.5 -61.5t25.5 -77.5t9.5 -95q0 -201 -138 -309.5t-403 -108.5q-213 0 -345 87t-206 272q-6 15 -3.5 23zM557 -498l82 299q1 14 8 19.5t21 5.5h39q31 0 22 -27l-96 -293q-8 -22 -31 -22h-27q-12 0 -15.5 4t-2.5 14z" />
<glyph unicode="&#x219;" horiz-adv-x="1273" d="M84.5 353q2.5 8 17.5 14l39 14q13 5 20.5 2t14.5 -18q66 -156 179 -230t284 -74q446 0 446 324q0 51 -13.5 91.5t-33 68.5t-56 50.5t-67.5 35.5t-83.5 24t-87.5 16.5t-95 12.5q-52 6 -86.5 11t-84 14.5t-82.5 19.5t-74.5 26.5t-68.5 36t-55.5 48t-45 62t-27 77.5 t-10.5 96q0 189 136.5 298.5t377.5 109.5q203 0 329 -76.5t207 -241.5q14 -25 -12 -35l-41 -18q-12 -5 -19 -3t-14 15q-70 139 -175.5 204t-274.5 65q-198 0 -308 -82t-110 -230q0 -51 14 -92t36 -70t59 -52t72 -37t87 -25t92.5 -17t98.5 -12q50 -6 84 -10.5t80.5 -13.5 t79 -19t71.5 -26.5t65 -36t52.5 -47.5t42.5 -61.5t25.5 -77.5t9.5 -95q0 -201 -138 -309.5t-403 -108.5q-213 0 -345 87t-206 272q-6 15 -3.5 23zM557 -498l82 299q1 14 8 19.5t21 5.5h39q31 0 22 -27l-96 -293q-8 -22 -31 -22h-27q-12 0 -15.5 4t-2.5 14z" />
<glyph unicode="&#x21a;" horiz-adv-x="1089" d="M27 1391v36q0 15 5.5 21t20.5 6h983q15 0 21 -6t6 -21v-36q0 -25 -27 -25h-444v-1339q0 -27 -25 -27h-43q-15 0 -20.5 6t-5.5 21v1339h-445q-15 0 -20.5 5.5t-5.5 19.5zM436 -483l80 299q3 15 9.5 19.5t21.5 4.5h39q31 0 22 -26l-98 -293q-5 -14 -10.5 -18.5t-18.5 -4.5 h-28q-12 0 -15.5 4t-1.5 15z" />
<glyph unicode="&#x21b;" horiz-adv-x="1089" d="M27 1391v36q0 15 5.5 21t20.5 6h983q15 0 21 -6t6 -21v-36q0 -25 -27 -25h-444v-1339q0 -27 -25 -27h-43q-15 0 -20.5 6t-5.5 21v1339h-445q-15 0 -20.5 5.5t-5.5 19.5zM436 -483l80 299q3 15 9.5 19.5t21.5 4.5h39q31 0 22 -26l-98 -293q-5 -14 -10.5 -18.5t-18.5 -4.5 h-28q-12 0 -15.5 4t-1.5 15z" />
<glyph unicode="&#x2c6;" horiz-adv-x="757" d="M44 1207q-3 7 5 14l275 231q2 2 6 5.5t5.5 4.5t4.5 3.5t4 3t3.5 2.5t4 2t4 1t5 1h5.5h7h10q14 0 21.5 -3.5t27.5 -19.5l270 -231q9 -7 6.5 -14t-18.5 -7h-37q-26 0 -43 14l-233 195l-238 -195q-16 -14 -39 -14h-39q-14 0 -17 7z" />
<glyph unicode="&#x2da;" horiz-adv-x="491" d="M49 1309q0 89 54.5 141.5t146.5 52.5q90 0 142 -52t52 -142q0 -89 -52 -141t-142 -52q-92 0 -146.5 52t-54.5 141zM100 1309q0 -66 40.5 -105t109.5 -39q66 0 104.5 39t38.5 105t-38.5 104.5t-104.5 38.5q-69 0 -109.5 -38.5t-40.5 -104.5z" />
<glyph unicode="&#x2dc;" horiz-adv-x="624" d="M-4 1249q0 93 39.5 143t114.5 50q50 0 96 -23t75.5 -51t69.5 -51t80 -23q48 0 72 35.5t24 95.5q0 17 17 17h28q17 0 17 -17q0 -192 -154 -192q-39 0 -75.5 15t-64 36.5t-54.5 43.5t-59 37t-66 15q-46 0 -72.5 -35.5t-26.5 -95.5q0 -16 -16 -16h-29q-16 0 -16 16z" />
<glyph unicode="&#x1e80;" horiz-adv-x="1781" d="M49 1430q-6 24 17 24h51q18 0 25 -4.5t10 -17.5l292 -1102q7 -30 21 -100.5t20 -94.5h4q40 171 46 193l305 1071q5 24 34 24h41q30 0 35 -24l305 -1075q15 -56 43 -189h7q17 95 36 189l295 1108q3 13 10 17.5t25 4.5h45q26 0 17 -24l-379 -1405q-7 -25 -35 -25h-41 q-30 0 -35 23l-305 1079q-23 86 -43 186h-6q-21 -108 -45 -186l-305 -1077q-5 -25 -35 -25h-39q-30 0 -35 23zM686 1792l19 23q16 18 47 4l352 -209q17 -11 2 -29l-14 -16q-10 -12 -33 -2l-369 200q-25 8 -4 29z" />
<glyph unicode="&#x1e81;" horiz-adv-x="1781" d="M49 1430q-6 24 17 24h51q18 0 25 -4.5t10 -17.5l292 -1102q7 -30 21 -100.5t20 -94.5h4q40 171 46 193l305 1071q5 24 34 24h41q30 0 35 -24l305 -1075q15 -56 43 -189h7q17 95 36 189l295 1108q3 13 10 17.5t25 4.5h45q26 0 17 -24l-379 -1405q-7 -25 -35 -25h-41 q-30 0 -35 23l-305 1079q-23 86 -43 186h-6q-21 -108 -45 -186l-305 -1077q-5 -25 -35 -25h-39q-30 0 -35 23zM686 1792l19 23q16 18 47 4l352 -209q17 -11 2 -29l-14 -16q-10 -12 -33 -2l-369 200q-25 8 -4 29z" />
<glyph unicode="&#x1e82;" horiz-adv-x="1781" d="M49 1430q-6 24 17 24h51q18 0 25 -4.5t10 -17.5l292 -1102q7 -30 21 -100.5t20 -94.5h4q40 171 46 193l305 1071q5 24 34 24h41q30 0 35 -24l305 -1075q15 -56 43 -189h7q17 95 36 189l295 1108q3 13 10 17.5t25 4.5h45q26 0 17 -24l-379 -1405q-7 -25 -35 -25h-41 q-30 0 -35 23l-305 1079q-23 86 -43 186h-6q-21 -108 -45 -186l-305 -1077q-5 -25 -35 -25h-39q-30 0 -35 23zM690 1585q-15 18 2 29l346 219q31 14 47 -4l19 -23q20 -20 -4 -30l-363 -209q-22 -7 -32 2z" />
<glyph unicode="&#x1e83;" horiz-adv-x="1781" d="M49 1430q-6 24 17 24h51q18 0 25 -4.5t10 -17.5l292 -1102q7 -30 21 -100.5t20 -94.5h4q40 171 46 193l305 1071q5 24 34 24h41q30 0 35 -24l305 -1075q15 -56 43 -189h7q17 95 36 189l295 1108q3 13 10 17.5t25 4.5h45q26 0 17 -24l-379 -1405q-7 -25 -35 -25h-41 q-30 0 -35 23l-305 1079q-23 86 -43 186h-6q-21 -108 -45 -186l-305 -1077q-5 -25 -35 -25h-39q-30 0 -35 23zM690 1585q-15 18 2 29l346 219q31 14 47 -4l19 -23q20 -20 -4 -30l-363 -209q-22 -7 -32 2z" />
<glyph unicode="&#x1e84;" horiz-adv-x="1781" d="M49 1430q-6 24 17 24h51q18 0 25 -4.5t10 -17.5l292 -1102q7 -30 21 -100.5t20 -94.5h4q40 171 46 193l305 1071q5 24 34 24h41q30 0 35 -24l305 -1075q15 -56 43 -189h7q17 95 36 189l295 1108q3 13 10 17.5t25 4.5h45q26 0 17 -24l-379 -1405q-7 -25 -35 -25h-41 q-30 0 -35 23l-305 1079q-23 86 -43 186h-6q-21 -108 -45 -186l-305 -1077q-5 -25 -35 -25h-39q-30 0 -35 23zM647 1686v14q0 26 10.5 36.5t36.5 10.5h13q27 0 37 -10t10 -37v-14q0 -26 -10 -36t-37 -10h-13q-26 0 -36.5 10t-10.5 36zM1038 1686v14q0 27 10 37t37 10h13 q26 0 36.5 -10.5t10.5 -36.5v-14q0 -26 -10.5 -36t-36.5 -10h-13q-27 0 -37 10t-10 36z" />
<glyph unicode="&#x1e85;" horiz-adv-x="1781" d="M49 1430q-6 24 17 24h51q18 0 25 -4.5t10 -17.5l292 -1102q7 -30 21 -100.5t20 -94.5h4q40 171 46 193l305 1071q5 24 34 24h41q30 0 35 -24l305 -1075q15 -56 43 -189h7q17 95 36 189l295 1108q3 13 10 17.5t25 4.5h45q26 0 17 -24l-379 -1405q-7 -25 -35 -25h-41 q-30 0 -35 23l-305 1079q-23 86 -43 186h-6q-21 -108 -45 -186l-305 -1077q-5 -25 -35 -25h-39q-30 0 -35 23zM647 1686v14q0 26 10.5 36.5t36.5 10.5h13q27 0 37 -10t10 -37v-14q0 -26 -10 -36t-37 -10h-13q-26 0 -36.5 10t-10.5 36zM1038 1686v14q0 27 10 37t37 10h13 q26 0 36.5 -10.5t10.5 -36.5v-14q0 -26 -10.5 -36t-36.5 -10h-13q-27 0 -37 10t-10 36z" />
<glyph unicode="&#x1ef2;" horiz-adv-x="1267" d="M30.5 1446q3.5 8 16.5 8h55q23 0 32 -4t16 -18l485 -736l485 736q9 15 17.5 18.5t31.5 3.5h52q13 0 16.5 -8t-2.5 -19l-555 -829v-571q0 -27 -25 -27h-43q-15 0 -20.5 6t-5.5 21v573l-553 827q-6 11 -2.5 19zM426 1792l18 23q16 18 48 4l352 -209q17 -11 2 -29l-15 -16 q-10 -13 -32 -2l-369 200q-25 8 -4 29z" />
<glyph unicode="&#x1ef3;" horiz-adv-x="1267" d="M30.5 1446q3.5 8 16.5 8h55q23 0 32 -4t16 -18l485 -736l485 736q9 15 17.5 18.5t31.5 3.5h52q13 0 16.5 -8t-2.5 -19l-555 -829v-571q0 -27 -25 -27h-43q-15 0 -20.5 6t-5.5 21v573l-553 827q-6 11 -2.5 19zM426 1792l18 23q16 18 48 4l352 -209q17 -11 2 -29l-15 -16 q-10 -13 -32 -2l-369 200q-25 8 -4 29z" />
<glyph unicode="&#x2000;" horiz-adv-x="979" />
<glyph unicode="&#x2001;" horiz-adv-x="1959" />
<glyph unicode="&#x2002;" horiz-adv-x="979" />
<glyph unicode="&#x2003;" horiz-adv-x="1959" />
<glyph unicode="&#x2004;" horiz-adv-x="653" />
<glyph unicode="&#x2005;" horiz-adv-x="489" />
<glyph unicode="&#x2006;" horiz-adv-x="326" />
<glyph unicode="&#x2007;" horiz-adv-x="326" />
<glyph unicode="&#x2008;" horiz-adv-x="244" />
<glyph unicode="&#x2009;" horiz-adv-x="391" />
<glyph unicode="&#x200a;" horiz-adv-x="108" />
<glyph unicode="&#x2010;" horiz-adv-x="872" d="M131 526v35q0 25 27 25h559q24 0 24 -25v-35q0 -14 -5.5 -19t-18.5 -5h-559q-15 0 -21 5.5t-6 18.5z" />
<glyph unicode="&#x2011;" horiz-adv-x="872" d="M131 526v35q0 25 27 25h559q24 0 24 -25v-35q0 -14 -5.5 -19t-18.5 -5h-559q-15 0 -21 5.5t-6 18.5z" />
<glyph unicode="&#x2012;" horiz-adv-x="872" d="M131 526v35q0 25 27 25h559q24 0 24 -25v-35q0 -14 -5.5 -19t-18.5 -5h-559q-15 0 -21 5.5t-6 18.5z" />
<glyph unicode="&#x2013;" horiz-adv-x="1185" d="M131 530v35q0 25 25 25h874q27 0 27 -25v-35q0 -13 -6 -18.5t-21 -5.5h-874q-25 0 -25 24z" />
<glyph unicode="&#x2014;" horiz-adv-x="1595" d="M129 530v35q0 25 27 25h1284q24 0 24 -25v-35q0 -14 -5 -19t-19 -5h-1284q-27 0 -27 24z" />
<glyph unicode="&#x2018;" horiz-adv-x="378" d="M113 1114l112 316q8 24 29 24h18q20 0 17 -18l-78 -322q-4 -19 -12 -25t-25 -6h-35q-38 0 -26 31z" />
<glyph unicode="&#x2019;" horiz-adv-x="370" d="M117 1102l78 321q4 19 11.5 25t24.5 6h35q39 0 27 -31l-113 -315q-8 -25 -28 -25h-19q-19 0 -16 19z" />
<glyph unicode="&#x201a;" horiz-adv-x="313" d="M115 201q0 24 22 24h41q25 0 25 -24l-21 -414q0 -25 -24 -25h-21q-22 0 -22 25v414z" />
<glyph unicode="&#x201c;" horiz-adv-x="593" d="M113 1114l112 316q8 24 29 24h18q20 0 17 -18l-78 -322q-4 -19 -12 -25t-25 -6h-35q-38 0 -26 31zM328 1114l112 316q8 24 29 24h16q12 0 16 -4t3 -14l-78 -322q-4 -19 -12 -25t-25 -6h-35q-38 0 -26 31z" />
<glyph unicode="&#x201d;" horiz-adv-x="585" d="M117 1102l78 321q4 19 11.5 25t24.5 6h35q39 0 27 -31l-113 -315q-8 -25 -28 -25h-19q-19 0 -16 19zM332 1102l78 321q4 19 11.5 25t24.5 6h35q36 0 27 -31l-113 -315q-8 -25 -28 -25h-19q-19 0 -16 19z" />
<glyph unicode="&#x201e;" horiz-adv-x="546" d="M43 -229l78 321q4 19 12 25t25 6h35q35 0 26 -31l-113 -317q-5 -13 -11 -18t-19 -5h-17q-19 0 -16 19zM258 -229l78 321q3 18 11 24.5t26 6.5h35q36 0 24 -31l-110 -317q-9 -23 -31 -23h-17q-12 0 -15 4t-1 15z" />
<glyph unicode="&#x2020;" horiz-adv-x="1097" d="M70 891v37q0 15 5 20.5t19 5.5h412v473q0 15 5.5 21t18.5 6h39q15 0 21 -6t6 -21v-473h408q15 0 20.5 -5.5t5.5 -20.5v-37q0 -14 -5.5 -19.5t-20.5 -5.5h-408v-1044q0 -15 -6 -21t-21 -6h-39q-13 0 -18.5 6t-5.5 21v1044h-412q-24 0 -24 25z" />
<glyph unicode="&#x2021;" horiz-adv-x="1202" d="M121 317v37q0 15 5.5 21t20.5 6h410v485h-410q-15 0 -20.5 5.5t-5.5 19.5v37q0 15 5.5 20.5t20.5 5.5h410v473q0 27 27 27h39q13 0 18.5 -6t5.5 -21v-473h410q14 0 19 -5.5t5 -20.5v-37q0 -25 -24 -25h-410v-485h410q13 0 18.5 -6t5.5 -21v-37q0 -13 -5.5 -18.5 t-18.5 -5.5h-410v-471q0 -15 -5.5 -21t-18.5 -6h-39q-27 0 -27 27v471h-410q-15 0 -20.5 5t-5.5 19z" />
<glyph unicode="&#x2022;" horiz-adv-x="559" d="M178 539q0 44 29 73t72 29q44 0 73 -29t29 -73q0 -43 -29 -73t-73 -30q-43 0 -72 30t-29 73z" />
<glyph unicode="&#x2026;" horiz-adv-x="1142" d="M106 45v12q0 32 12.5 44t45.5 12h10q32 0 43.5 -12t11.5 -44v-12q0 -31 -11.5 -43t-43.5 -12h-10q-33 0 -45.5 11.5t-12.5 43.5zM510 45v12q0 32 11.5 44t43.5 12h10q33 0 45.5 -12t12.5 -44v-12q0 -31 -13 -43t-45 -12h-10q-32 0 -43.5 11.5t-11.5 43.5zM911 45v12 q0 32 12.5 44t45.5 12h10q32 0 43.5 -12t11.5 -44v-12q0 -31 -11.5 -43t-43.5 -12h-10q-33 0 -45.5 11.5t-12.5 43.5z" />
<glyph unicode="&#x202f;" horiz-adv-x="391" />
<glyph unicode="&#x2030;" horiz-adv-x="2410" d="M78 1032v154q0 140 82 219.5t235 79.5t234.5 -79.5t81.5 -219.5v-154q0 -140 -81.5 -218.5t-234.5 -78.5t-235 78.5t-82 218.5zM156 1036q0 -108 61.5 -167.5t177.5 -59.5t178 59.5t62 167.5v146q0 108 -62 168.5t-178 60.5t-177.5 -60.5t-61.5 -168.5v-146zM257.5 8 q-3.5 8 4.5 19l1034 1405q10 15 18 18.5t29 3.5h39q13 0 17 -7.5t-4 -19.5l-1035 -1404q-12 -15 -20 -19t-31 -4h-33q-15 0 -18.5 8zM944 266v152q0 141 82 221t234 80q153 0 235 -80t82 -221v-152q0 -140 -82 -218.5t-235 -78.5q-152 0 -234 78.5t-82 218.5zM1020 270 q0 -108 62 -167.5t178 -59.5t177.5 59.5t61.5 167.5v146q0 108 -61.5 168.5t-177.5 60.5t-178 -60.5t-62 -168.5v-146zM1706 266v152q0 141 81.5 221t233.5 80q153 0 235.5 -80t82.5 -221v-152q0 -140 -82.5 -218.5t-235.5 -78.5q-152 0 -233.5 78.5t-81.5 218.5zM1782 270 q0 -108 61.5 -167.5t177.5 -59.5t178 59.5t62 167.5v146q0 108 -62 168.5t-178 60.5t-177.5 -60.5t-61.5 -168.5v-146z" />
<glyph unicode="&#x2039;" horiz-adv-x="669" d="M84 522q-16 16 0 31l420 424q16 14 33 0l24 -27q16 -16 0 -32l-377 -379l377 -375q14 -17 0 -31l-29 -29q-15 -15 -32 0z" />
<glyph unicode="&#x203a;" horiz-adv-x="669" d="M106 918q-15 15 0 32l27 27q15 15 31 0l422 -424q13 -15 0 -31l-418 -418q-16 -16 -33 0l-26 29q-17 14 0 31l374 375z" />
<glyph unicode="&#x2044;" horiz-adv-x="288" d="M-422 27l1034 1403q11 15 19 19.5t28 4.5h35q15 0 19.5 -7.5t-4.5 -19.5l-1033 -1402q-13 -16 -21.5 -20.5t-31.5 -4.5h-31q-31 0 -14 27z" />
<glyph unicode="&#x205f;" horiz-adv-x="489" />
<glyph unicode="&#x20ac;" horiz-adv-x="1480" d="M68 551l8 27q6 22 30 22h201v234h-145q-15 0 -19.5 5t-1.5 19l9 27q8 22 30 22h125v84q0 231 143.5 362.5t409.5 131.5q197 0 315.5 -62t182.5 -186q16 -31 -13 -43l-30 -14q-26 -13 -43 12q-48 98 -145.5 151.5t-266.5 53.5q-220 0 -337.5 -106.5t-117.5 -295.5v-88h693 q24 0 18 -22l-8 -29q-8 -22 -33 -22h-674v-234h607q24 0 16 -22l-8 -29q-6 -23 -33 -23h-578v-67q2 -188 120 -295t335 -107q176 0 275.5 59t146.5 165q13 26 41 12l33 -14q28 -14 10 -43q-61 -133 -181 -200t-325 -67q-261 0 -404.5 128.5t-146.5 361.5v67h-221 q-26 0 -18 25z" />
<glyph unicode="&#x20bd;" horiz-adv-x="1310" d="M76 330v22q0 16 4.5 21.5t19.5 5.5h107v1048q0 15 5.5 21t20.5 6h555q207 0 327 -112.5t120 -313.5q0 -198 -120 -310t-327 -112h-487v-227h754q13 0 18.5 -6t5.5 -21v-22q0 -25 -24 -25h-754v-278q0 -27 -25 -27h-43q-15 0 -20.5 6t-5.5 21v278h-107q-14 0 -19 5.5 t-5 19.5zM301 694h479q167 0 262 88.5t95 245.5q0 159 -95.5 248.5t-261.5 89.5h-479v-672z" />
<glyph unicode="&#x2122;" horiz-adv-x="1284" d="M92 1386v17q0 14 2.5 17t14.5 3h426q12 0 15 -3.5t3 -16.5v-17q0 -12 -3 -15t-15 -3h-183v-442q0 -19 -22 -19h-15q-12 0 -16 4t-4 15v442h-186q-12 0 -14.5 3t-2.5 15zM608 926v477q0 13 4 16.5t17 3.5h12q16 0 23 -12l206 -315l207 313q11 14 23 14h14q11 0 15 -3.5 t4 -14.5v-479q0 -11 -3.5 -15t-15.5 -4h-18q-21 0 -21 19v280q0 16 1 52t1 55q-9 -14 -45 -72l-133 -201q-10 -12 -25 -12h-8q-14 0 -22 10l-180 271q2 -35 2 -103v-280q0 -11 -3.5 -15t-15.5 -4h-18q-13 0 -17 4t-4 15z" />
<glyph unicode="&#x25fc;" horiz-adv-x="1454" d="M0 0v1454h1454v-1454h-1454z" />
</font>
</defs>
</svg>
